<?xml version="1.0" standalone="no"?>
<!DOCTYPE svg PUBLIC "-//W3C//DTD SVG 1.1//EN" "http://www.w3.org/Graphics/SVG/1.1/DTD/svg11.dtd" >
<svg xmlns="http://www.w3.org/2000/svg">
<metadata>Generated by IcoMoon</metadata>
<defs>
<font id="icomoon" horiz-adv-x="1024">
<font-face units-per-em="1024" ascent="960" descent="-64" />
<missing-glyph horiz-adv-x="1024" />
<glyph unicode="&#x20;" horiz-adv-x="512" d="" />
<glyph unicode="&#xe900;" glyph-name="ace" d="M913.907 467.517l-104.326 128.106-226.422-460.406c-2.214-4.506-4.717-8.797-7.478-12.858l328.102 256.218c13.472 10.522 21.93 25.613 23.821 42.493 1.882 16.797-2.982 33.293-13.696 46.448zM784.045 470.966l31.674-37.907-33.757-28.534-31.674 37.91 33.757 28.531zM489.136 76.826c-15.584 0-30.643 3.379-44.762 10.038l-132.765 62.608 76.627-94.093c12.518-15.37 31.008-23.379 49.654-23.379 13.814 0 27.715 4.4 39.318 13.462l48.406 37.802c-11.437-4.195-23.75-6.438-36.48-6.438zM594.067 275.011c0-2.141-0.086-4.259-0.211-6.365l181.907 369.888c6.442 13.098 7.35 27.893 2.563 41.665-4.867 13.998-15.002 25.222-28.531 31.603l-155.728 73.437v-510.228zM637.805 667.848l44.528-21.125-18.813-40.112-44.528 21.123 18.813 40.114zM539.034 157.168l19.258 39.162c-18.195-15.894-41.917-25.549-67.853-25.549h-108.045l82.88-39.085c7.533-3.552 15.558-5.354 23.866-5.357 21.421 0.003 40.541 11.814 49.894 30.829zM320.576 606.4l-53.766-64.41 53.766-64.406 53.763 64.406-53.763 64.41zM490.438 220.298c29.994 0 54.397 24.544 54.397 54.714v534.276c0 30.17-24.403 54.713-54.397 54.713h-340.040c-29.995 0.002-54.398-24.543-54.398-54.713v-534.276c0-30.17 24.404-54.714 54.398-54.714h340.040zM320.576 400.579l-118.048 141.414 118.048 141.412 118.048-141.412-118.048-141.414zM186.804 776.902h49.23v-44.351h-49.23v44.351zM455.93 353.942v-44.352h-49.232v44.352h49.232z" />
<glyph unicode="&#xe901;" glyph-name="award" d="M783.517 44.637c0-6.95-5.811-12.637-12.912-12.637h-517.208c-7.103 0-12.914 5.686-12.914 12.637s5.811 12.637 12.914 12.637h84.974v108.298c0 18.701 15.498 33.866 34.611 33.866h277.907c19.245 0 34.739-15.165 34.739-33.866v-108.298h84.976c7.101 0 12.912-5.686 12.912-12.637zM857.773 772.89c-27.376 22.366-63.28 26.537-92.851 22.746 1.162 18.070 1.936 36.52 2.323 55.475 0.131 3.412-1.29 6.697-3.616 9.098-2.451 2.401-5.811 3.791-9.296 3.791h-484.793c-3.358 0-6.716-1.39-9.169-3.791s-3.745-5.686-3.745-9.098c0.387-18.955 1.291-37.405 2.324-55.475-29.444 3.791-65.474-0.38-92.723-22.746-19.759-16.049-42.358-48.020-37.58-108.928 13.172-143.68 145.283-205.725 241.622-251.091 24.538-11.501 47.523-22.621 65.731-33.36-6.198-4.675-10.33-12.006-10.33-20.221 0-14.154 11.75-25.526 26.214-25.526h6.198v-109.053h107.834v109.053h6.198c14.464 0 26.086 11.373 26.086 25.526 0 8.342-4.131 15.67-10.461 20.346 24.019 16.176 53.722 30.835 85.363 46.125 93.366 45.238 209.594 101.472 222.25 238.328 4.778 60.782-17.821 92.753-37.581 108.802zM154.347 665.983c-3.1 40.185 6.457 69.628 28.41 87.572 22.471 18.45 53.593 20.724 78.13 16.302 11.881-142.542 47.136-255.262 100.082-324.51-91.559 43.597-195.517 100.589-206.623 220.636zM607.242 810.168h80.454c3.357 0 6.714-1.391 9.168-3.792s3.747-5.686 3.747-9.098c-0.39-17.944-0.906-35.383-1.68-52.316-0.259-6.824-6.070-12.131-12.915-12.131h-0.515c-7.104 0.379-12.656 6.192-12.397 13.142 0.515 12.763 1.034 25.652 1.421 38.921h-67.283c-7.104 0-12.915 5.56-12.915 12.637 0 6.95 5.811 12.636 12.915 12.636zM552.355 810.168h7.491c7.104 0 12.915-5.687 12.915-12.637 0-7.076-5.811-12.637-12.915-12.637h-7.491c-7.101 0-12.912 5.56-12.912 12.637 0 6.95 5.811 12.637 12.912 12.637zM607.888 639.574l-41.843-40.061 9.814-56.358c1.165-6.698-5.939-11.754-12.010-8.592l-51.914 26.662-51.786-26.662c-6.070-3.162-13.302 1.894-12.010 8.592l9.814 56.358-41.971 40.061c-4.906 4.674-2.195 12.887 4.65 13.899l57.984 8.214 25.958 51.431c2.97 6.066 11.75 6.066 14.851 0l25.955-51.431 57.984-8.214c6.717-1.011 9.427-9.225 4.522-13.899zM869.654 666.236c-11.107-120.175-111.578-171.1-202.362-215.078 50.493 69.757 84.198 180.074 95.821 318.699 24.406 4.422 55.53 2.148 78.131-16.302 21.952-17.944 31.507-47.388 28.41-87.319z" />
<glyph unicode="&#xe902;" glyph-name="banca" d="M921.6 460.8c-12.8 60.8-44.8 115.2-92.8 156.8-54.4 48-124.8 76.8-208 89.6-115.2 16-224 6.4-323.2-35.2-86.4-35.2-147.2-83.2-182.4-115.2-12.8-9.6-19.2-25.6-19.2-41.6 0-19.2 9.6-38.4 25.6-48 32-22.4 73.6-41.6 121.6-57.6l9.6 19.2c35.2 67.2 73.6 99.2 140.8 115.2 12.8 3.2 25.6-3.2 28.8-19.2 3.2-12.8-3.2-25.6-19.2-28.8-51.2-12.8-80-35.2-108.8-92.8l-6.4-9.6c32-9.6 64-16 99.2-19.2 112-16 201.6-6.4 252.8 22.4 32 19.2 60.8 25.6 80 16 16-6.4 28.8-19.2 35.2-41.6 6.4-25.6-9.6-60.8-25.6-83.2-9.6-16-28.8-22.4-48-16-35.2 12.8-70.4 9.6-102.4-9.6l-28.8-16c-6.4-3.2-12.8-12.8-12.8-22.4s6.4-16 12.8-22.4l9.6-3.2c25.6-12.8 44.8-32 57.6-54.4s19.2-51.2 19.2-76.8v-9.6c0-9.6 3.2-16 12.8-22.4 3.2-3.2 9.6-3.2 12.8-3.2s9.6 0 12.8 3.2l28.8 16c32 19.2 54.4 51.2 60.8 86.4 3.2 12.8 9.6 22.4 19.2 28.8 105.6 60.8 160 179.2 137.6 294.4zM246.4 512c-12.8 0-25.6 9.6-25.6 25.6s9.6 25.6 25.6 25.6 25.6-9.6 25.6-25.6-12.8-25.6-25.6-25.6zM864 652.8c-22.4 19.2-44.8 35.2-73.6 51.2 38.4 16 80 16 118.4 0 12.8-3.2 19.2-9.6 19.2-19.2s-3.2-19.2-9.6-22.4c-12.8-6.4-22.4-16-32-25.6-9.6 3.2-16 9.6-22.4 16zM521.6 764.8c-28.8 0-57.6-3.2-86.4-6.4 35.2 64 102.4 105.6 179.2 105.6 9.6 0 19.2-6.4 22.4-12.8 3.2-9.6 3.2-19.2-3.2-25.6-16-19.2-25.6-41.6-35.2-67.2-28.8 3.2-54.4 6.4-76.8 6.4zM544 275.2c0 0-3.2 0-3.2 0-35.2 6.4-67.2 22.4-92.8 41.6 16 0 32 0 44.8 0 25.6 0 48 0 70.4 3.2 0-3.2 3.2-6.4 6.4-9.6 3.2-9.6 3.2-19.2-3.2-25.6s-12.8-9.6-22.4-9.6z" />
<glyph unicode="&#xe903;" glyph-name="uu-dai" d="M812.762 687.216h-44.224c8.474 15.997 12.962 33.803 13.082 51.904 0.026 23.557-7.241 46.544-20.804 65.804s-32.755 33.849-54.946 41.762c-22.187 7.913-46.281 8.763-68.971 2.432s-42.863-19.531-57.749-37.788c-1.122-1.619-47.795-63.489-77.815-103.435-30.063 39.987-76.777 102.106-78.105 103.809-14.935 18.168-35.122 31.275-57.795 37.526s-46.724 5.341-68.86-2.606c-22.136-7.947-41.274-22.542-54.794-41.786s-20.76-42.198-20.73-65.717c0.12-18.102 4.607-35.907 13.080-51.904h-44.223c-24.768-0.033-48.513-9.887-66.027-27.401s-27.368-41.259-27.401-66.027v-145.332c0-8.26 3.281-16.183 9.122-22.020 5.84-5.841 13.761-9.122 22.021-9.122h10.381v-218.001c-2.438-21.039-0.088-42.355 6.875-62.357s18.359-38.17 33.335-53.146c14.976-14.976 33.144-26.372 53.146-33.335s41.319-9.314 62.357-6.874h415.238c21.035-2.441 42.355-0.090 62.357 6.874s38.17 18.359 53.146 33.335c14.976 14.976 26.372 33.143 33.335 53.146s9.31 41.318 6.874 62.357v218.001h10.381c8.26 0 16.179 3.281 22.020 9.122 5.841 5.837 9.122 13.76 9.122 22.020v145.332c-0.034 24.768-9.886 48.513-27.401 66.027s-41.259 27.368-66.027 27.401zM843.904 593.788v-114.189h-311.428v145.332h280.286c8.256-0.011 16.171-3.296 22.007-9.134s9.122-13.753 9.135-22.009zM627.524 772.049c4.791 5.965 10.871 10.769 17.779 14.056 6.912 3.286 14.473 4.968 22.127 4.92 13.764 0 26.965-5.468 36.702-15.202 9.732-9.734 15.202-22.936 15.202-36.702s-5.47-26.968-15.202-36.702c-9.737-9.734-22.938-15.203-36.702-15.203h-103.812c28.113 37.288 61.956 82.3 63.906 84.833zM283.335 739.121c0.022 13.759 5.498 26.949 15.227 36.678s22.918 15.205 36.678 15.226c7.512 0.076 14.945-1.528 21.757-4.697s12.827-7.82 17.608-13.615c2.159-2.948 36.25-48.126 64.445-85.497h-103.809c-13.759 0.022-26.948 5.498-36.678 15.227s-15.205 22.918-15.227 36.678zM158.764 593.788c0.011 8.256 3.296 16.171 9.134 22.009s13.753 9.123 22.009 9.134h280.284v-145.332h-311.427v114.189zM200.288 199.313v218.001h269.903v-311.428h-176.475c-65.483 0-93.428 27.947-93.428 93.427zM802.381 199.313c0-65.481-27.947-93.427-93.427-93.427h-176.478v311.428h269.905v-218.001z" />
<glyph unicode="&#xe904;" glyph-name="giftcode" horiz-adv-x="1056" d="M758.79 810.668h-527.514c-54.4 0-98.909-44.509-98.909-98.909v-82.424c0-18.134 14.836-32.97 32.97-32.97h16.485c27.365 0 49.454-22.090 49.454-49.456 0-27.363-22.090-49.453-49.454-49.453h-16.485c-18.133 0-32.97-14.835-32.97-32.97v-82.426c0-54.4 44.509-98.909 98.909-98.909h198.148c-0.33 5.606-0.33 10.88-0.33 16.486 0 16.813 1.648 33.299 4.614 49.453h-202.433c-18.133 0-32.97 14.838-32.97 32.97v50.774c55.719 7.914 98.909 56.048 98.909 114.074 0 58.029-43.19 106.164-98.909 114.077v50.773c0 18.133 14.836 32.97 32.97 32.97h527.514c18.134 0 32.97-14.836 32.97-32.97v-50.773c-24.726-3.297-47.146-14.507-64.95-32.31-14.176-14.176-24.067-30.662-29.341-49.126 3.955 0.333 7.91 0.333 11.869 0.333 19.782 0 38.902-1.981 57.696-5.936 1.648 2.966 3.955 5.603 6.266 7.914 9.232 9.232 21.76 14.506 34.947 14.506h16.483c18.134 0 32.97 14.835 32.97 32.97v82.424c0 54.4-44.509 98.909-98.909 98.909zM396.125 687.032c-18.198 0-32.97 14.77-32.97 32.97v49.454c0 18.199 14.771 32.97 32.97 32.97s32.97-14.771 32.97-32.97v-49.454c0-18.199-14.771-32.97-32.97-32.97zM396.125 466.73c-18.198 0-32.97 14.768-32.97 32.97v94.422c0 18.202 14.771 32.97 32.97 32.97s32.97-14.768 32.97-32.97v-94.422c0-18.202-14.771-32.97-32.97-32.97zM396.125 291.395c-18.198 0-32.97 14.771-32.97 32.97v49.456c0 18.198 14.771 32.97 32.97 32.97s32.97-14.771 32.97-32.97v-49.456c0-18.198-14.771-32.97-32.97-32.97zM709.338 513.939c-118.163 0-214.304-96.138-214.304-214.301s96.141-214.304 214.304-214.304c118.163 0 214.301 96.141 214.301 214.304s-96.138 214.301-214.301 214.301zM705.216 324.365h8.243c34.090 0 61.818-27.728 61.818-61.818 0-26.806-17.277-49.488-41.213-58.026v-12.035c0-13.651-11.078-24.726-24.726-24.726-13.651 0-24.726 11.075-24.726 24.726v8.243h-16.486c-13.648 0-24.726 11.075-24.726 24.726 0 13.648 11.078 24.726 24.726 24.726h45.334c6.822 0 12.362 5.539 12.362 12.365s-5.539 12.362-12.362 12.362h-8.243c-34.090 0-61.818 27.728-61.818 61.821 0 26.803 17.274 49.488 41.213 58.026v12.035c0 13.648 11.075 24.726 24.726 24.726 13.648 0 24.726-11.078 24.726-24.726v-8.243h16.486c13.648 0 24.726-11.078 24.726-24.726 0-13.651-11.078-24.73-24.726-24.73h-45.334c-6.826 0-12.365-5.539-12.365-12.362 0-6.826 5.539-12.365 12.365-12.365z" />
<glyph unicode="&#xe905;" glyph-name="noti" d="M511.902 21.329c52.937 0 95.855 42.914 95.855 95.855s-42.918 95.859-95.855 95.859c-52.941 0-95.858-42.918-95.858-95.859s42.917-95.855 95.858-95.855zM511.902 213.043c-49.933 0-90.925-38.187-95.427-86.938l104.349-104.35c48.751 4.501 86.933 45.5 86.933 95.428 0 52.941-42.918 95.859-95.855 95.859zM826.005 284.335h-628.215c-42.905 0-77.686-34.778-77.686-77.687 0-42.906 34.781-77.687 77.686-77.687h628.215c42.906 0 77.687 34.782 77.687 77.687 0 42.91-34.782 77.687-77.687 77.687zM781.039 342.955v155.729c0 125.943-86.502 231.64-203.328 261.005 6.665 11.338 10.522 24.548 10.522 38.645 0 42.152-34.185 76.332-76.335 76.332s-76.331-34.18-76.331-76.332c0-14.099 3.857-27.307 10.522-38.645-116.829-29.365-203.31-135.063-203.31-261.005v-155.729c0-33.715-27.331-61.047-61.042-61.047h660.325c-33.715 0-61.022 27.332-61.022 61.047zM511.898 767.822c-16.858 0-30.532 13.654-30.532 30.511 0 16.88 13.675 30.534 30.532 30.534s30.532-13.653 30.532-30.534c0-16.857-13.675-30.511-30.532-30.511zM121.076 191.211c5.865-37.094 37.977-65.463 76.721-61.952h628.217c38.746-3.511 70.857 24.858 76.719 61.952h-781.657z" />
<glyph unicode="&#xe906;" glyph-name="check-double" d="M671.77 648.64c-16.555 16.739-43.529 16.95-60.339 0.471l-315.379-311.698-137.098 141.926c-16.352 17.045-43.422 17.604-60.463 1.254-17.042-16.354-17.602-43.426-1.25-60.463 0.074-0.077 0.146-0.154 0.22-0.23l167.162-173.231c8-8.162 18.934-12.783 30.362-12.83h0.471c11.212 0.034 21.962 4.471 29.934 12.356l345.993 342.106c16.717 16.578 16.887 43.548 0.388 60.339zM521.199 246.669c7.979-8.141 18.876-12.762 30.276-12.83h0.469c11.213 0.034 21.965 4.471 29.935 12.356l345.997 342.106c15.684 17.659 14.080 44.687-3.575 60.37-16.009 14.218-40.064 14.405-56.294 0.439l-315.251-311.698-11.247 11.674c-16.35 17.041-43.418 17.604-60.463 1.25-17.041-16.35-17.6-43.418-1.25-60.463 0.073-0.077 0.149-0.154 0.222-0.226l41.182-42.978z" />
<glyph unicode="&#xe907;" d="M736.704 556.125c64.397 0 116.604 52.206 116.604 116.605s-52.207 116.604-116.604 116.604c-64.401 0-116.604-52.206-116.604-116.604s52.203-116.605 116.604-116.605z" />
<glyph unicode="&#xe908;" glyph-name="coin" d="M512 864c-229.753 0-416-186.247-416-416s186.247-416 416-416c229.754 0 416 186.246 416 416s-186.246 416-416 416zM512 110c-186.384 0-338 151.632-338 338s151.616 338 338 338c186.384 0 338-151.616 338-338s-151.632-338-338-338zM533.475 434.499h-54.618v-81.139h54.618c11.024 0 21.251 4.474 28.429 11.978 7.504 7.194 11.978 17.402 11.978 28.755 0.016 22.205-18.202 40.406-40.406 40.406zM512 751.334c-167.267 0-303.333-136.067-303.333-303.334s136.066-303.331 303.333-303.331c167.267 0 303.334 136.083 303.334 303.331 0 167.251-136.083 303.334-303.334 303.334zM573.725 307.533h-35.776v-56.23h-37.526v56.23h-20.611v-56.23h-37.699v56.23h-66.282v35.29h36.573v211.466h-36.573v35.293h66.282v55.101h37.699v-55.101h20.611v55.101h37.526v-55.101h32.586c18.202 0 34.979-7.507 46.957-19.485s19.482-28.755 19.482-46.957c0-35.619-28.115-64.688-63.248-66.282 41.2 0 74.429-33.539 74.429-74.742 0-41.043-33.21-74.582-74.429-74.582zM557.603 484.333c6.554 6.55 10.541 15.338 10.541 25.235 0 19.638-15.965 35.619-35.622 35.619h-53.664v-71.395h53.664c9.744 0 18.688 4.16 25.082 10.541z" />
<glyph unicode="&#xe909;" glyph-name="daga" d="M896 486.557c0 111.738-91.206 201.442-199.894 201.442-1.014 0-2.038-0.006-3.059-0.025-52.755-0.812-102.224-22.49-139.293-61.039-27.648-28.749-46.032-64.442-53.616-103.187 27.718-20.403 44.394-44.192 54.307-63.872 17.203-34.15 18.218-63.062 18.278-66.25l0.278-15.011-12.954-7.008c-31.709-17.158-63.651-25.715-95.126-25.715-39.338 0-77.936 13.363-114.49 39.99-47.8 34.835-74.872 80.355-75.999 82.278l40.706 25.2c0.229-0.394 23.84-39.725 63.962-68.554 45.994-33.040 94.349-38.842 143.933-17.318-3.776 17.178-14.173 45.997-42.624 70.282-12.006 10.246-26.106 17.462-40.998 22.282-31.658 10.243-56.941 36.538-65.635 70.806l-31.974 126.028c-4.723 18.624-15.616 34.277-30.074 44.923l24.135 53.466v4.323c0 30.875-24.63 57.167-54.748 57.148-6.161 0-12.148-1.041-17.796-3.028-9.071 6.582-20.043 10.283-31.604 10.283-20.663 0-38.848-11.883-48.142-29.478-25.567-4.697-45.028-27.663-45.028-55.206 0-12.283 3.802-23.943 10.997-33.732l3.269-4.45 51.034-27.073-75.845-36.144 54.706-32.913-7.226-14.142c-7.92-15.501-7.703-34.323 1.412-49.12 6.898-11.184 17.666-18.755 29.975-21.392v-107.827c0-58.288 23.827-116.147 65.368-158.736l87.739-89.952v-98.624c0-13.405-10.598-24.272-23.67-24.272h-76.397v-48.941h151.754c39.434 0 71.411 32.781 71.411 73.206v140.474l88.253 50.269 40.723 28.627c17.344 12.195 29.053 31.414 32.125 52.742 1.782 12.371 0.582 24.928-3.306 36.57 13.968-3.574 26.893-10.912 40.694-22.566 40.074-33.834 56.147-96.109 33.882-144.093l-31.702-56.333c0 0 68.688 29.248 92.934 59.811 28.378 35.763 42.986 80.49 40.538 126.448-2.496 46.947-22.39 89.469-56.013 119.734-28.272 25.446-56.016 38.275-79.254 44.477 6.784 2.33 14.563 3.837 23.43 3.722 65.923-0.704 134.253-36.138 149.558-109.357 6.342-30.336 3.171-74.752 3.171-74.752s37.894 55.251 37.894 125.578zM435.331 105.206c0-13.379-10.618-24.266-23.67-24.266h-7.994c2.611 7.597 4.048 15.76 4.048 24.266v97.565l27.616 15.722v-113.286z" />
<glyph unicode="&#xe90a;" glyph-name="flash" d="M893.91 523.536l-277.91 50.531v116.596c0 38.324-31.043 69.337-69.338 69.337h-8.662v52h112.662v52h-277.325v-52h112.662v-52h-8.662c-38.294 0-69.338-31.044-69.338-69.337v-116.596l-277.877-50.531c-18.751-3.424-34.123-21.811-34.123-40.874v-69.325c0-38.128 31.21-69.338 69.337-69.338h250.11c4.95-47.84 12.262-94.995 22.080-141.242l-102.512-51.251c-17.068-8.528-31.014-31.117-31.014-50.17v-69.338h416v69.338c0 19.053-13.946 41.642-31.002 50.17l-102.512 51.251c9.805 46.246 17.126 93.402 22.099 141.242h250.077c38.128 0 69.338 31.21 69.338 69.338v69.325c0 19.062-15.341 37.45-34.090 40.874zM546.662 448c0-19.062-15.6-34.662-34.662-34.662s-34.662 15.6-34.662 34.662v104c0 19.062 15.6 34.662 34.662 34.662s34.662-15.6 34.662-34.662v-104z" />
<glyph unicode="&#xe90b;" glyph-name="baccarat" d="M874.773 768.237l-87.441 12.73c1.916-8.446 2.893-17.091 2.914-25.766v-556.8c-0.030-30.545-11.767-59.827-32.636-81.425s-49.165-33.745-78.682-33.775h-26.492l126.81-18.453c9.651-1.404 19.473-0.828 28.911 1.698s18.3 6.95 26.082 13.022c7.787 6.071 14.336 13.67 19.281 22.362 4.949 8.691 8.192 18.308 9.545 28.297l74.88 551.386c2.735 20.17-2.385 40.638-14.229 56.902-11.849 16.264-29.453 26.992-48.943 29.824zM678.929 832h-122.317c11.755-9.007 21.67-20.328 29.184-33.313s12.476-27.379 14.601-42.354l74.825-551.388c4.058-29.406-3.098-59.294-19.947-83.345h23.654c19.682 0 38.558 8.090 52.476 22.494s21.739 33.937 21.739 54.306v556.8c0 20.369-7.821 39.903-21.739 54.306s-32.794 22.494-52.476 22.494zM638.524 199.59l-74.88 551.386c-2.761 20.152-13.137 38.347-28.847 50.587-15.714 12.24-35.482 17.525-54.959 14.693l-330.703-48.019c-19.473-2.855-37.054-13.593-48.882-29.854s-16.934-36.717-14.197-56.872l74.786-551.386c1.355-9.988 4.598-19.605 9.544-28.297s11.498-16.29 19.281-22.362c7.784-6.071 16.647-10.496 26.083-13.022s19.261-3.102 28.913-1.698l330.705 48.115c19.486 2.837 37.086 13.568 48.93 29.833 11.84 16.265 16.96 36.727 14.225 56.896zM232.846 627.347c-2.010-1.428-4.272-2.432-6.656-2.956s-4.847-0.555-7.243-0.093c-2.397 0.462-4.682 1.408-6.725 2.784s-3.804 3.156-5.182 5.237l-14.193 21.37-7.996-24.653c-1.567-4.838-4.927-8.832-9.341-11.107s-9.519-2.64-14.194-1.018c-4.675 1.622-8.535 5.099-10.732 9.667s-2.551 9.851-0.984 14.688l19.814 61.037c1.292 3.195 3.364 5.988 6.014 8.103s5.786 3.482 9.1 3.964c3.314 0.482 6.692 0.064 9.803-1.213s5.847-3.371 7.94-6.073l35.251-53.031c2.8-4.183 3.881-9.347 3.004-14.355s-3.639-9.451-7.679-12.352zM455.979 436.173l-56.157-77.129c-5.924-8.124-14.724-13.487-24.465-14.899-9.741-1.417-19.627 1.229-27.483 7.356l-74.545 58.099c-13.81 10.769-22.921 26.778-25.329 44.501-2.408 17.719 2.085 35.708 12.49 50.001 10.414 14.289 25.886 23.714 43.014 26.202s34.509-2.163 48.322-12.937c5.099 7.228 11.536 13.333 18.935 17.959 7.4 4.628 15.615 7.686 24.167 8.998s17.271 0.85 25.65-1.357c8.38-2.208 16.248-6.117 23.156-11.503 6.903-5.385 12.706-12.134 17.067-19.861s7.194-16.273 8.333-25.139c1.139-8.87 0.563-17.886-1.694-26.522-2.257-8.64-6.153-16.704-11.46-23.77zM574.886 239.834l-19.814-61.056c-1.097-3.383-3.081-6.383-5.73-8.666-2.654-2.278-5.867-3.75-9.28-4.245-3.413-0.499-6.895 0-10.048 1.438-3.157 1.434-5.862 3.75-7.817 6.69l-35.251 53.052c-2.79 4.194-3.857 9.365-2.961 14.374 0.892 5.009 3.674 9.446 7.727 12.331 4.058 2.889 9.054 3.989 13.892 3.063 4.838-0.922 9.126-3.802 11.917-7.996l14.246-21.41 7.996 24.653c1.57 4.838 4.928 8.832 9.344 11.106 2.185 1.126 4.561 1.796 6.997 1.971s4.881-0.149 7.194-0.951c2.317-0.802 4.454-2.069 6.298-3.729 1.839-1.66 3.349-3.674 4.437-5.939 1.088-2.261 1.732-4.719 1.903-7.241 0.166-2.522-0.145-5.052-0.922-7.445h-0.128z" />
<glyph unicode="&#xe90c;" glyph-name="lode" d="M697.872 492.256c-127.456 0-230.128-102.672-230.128-230.128s102.672-230.128 230.128-230.128c127.456 0 230.128 102.672 230.128 230.128s-102.672 230.128-230.128 230.128zM697.872 122.282c-53.107 0-95.59 42.483-95.59 95.59 0 30.093 14.16 56.646 35.405 74.349-7.082 10.621-12.394 24.784-12.394 40.717 0 38.944 31.866 70.806 70.81 70.806s70.81-31.862 70.81-70.806c0-14.163-5.312-28.326-12.394-40.717 21.245-17.702 35.405-44.256 35.405-74.349 3.539-53.107-38.944-95.59-92.051-95.59zM697.872 258.589c-23.011 0-42.483-19.475-42.483-42.486 0-23.014 19.472-42.486 42.483-42.486 23.014 0 42.486 19.472 42.486 42.486 0 23.011-19.472 42.486-42.486 42.486zM414.637 262.128c0 90.282 42.486 169.939 107.984 221.277l-31.862 31.862 24.781 24.784-24.781 24.784 37.174 37.174 24.781-24.784 24.784 24.784 37.174-37.174-24.784-24.784 10.624-10.621c30.093 10.621 61.955 17.702 95.59 17.702h3.539v224.816c0 51.336-40.714 92.051-92.051 92.051h-419.539c-51.336 0-92.051-40.715-92.051-92.051v-646.128c0-51.334 40.715-92.051 92.051-92.051h345.19c-70.806 49.568-118.605 132.768-118.605 228.358zM490.758 727.694l37.174 37.174 24.781-24.783 24.784 24.783 37.174-37.174-24.784-24.783 24.784-24.783-37.174-37.174-24.784 24.783-24.781-24.783-37.174 37.174 24.781 24.783-24.781 24.783zM338.518 727.694l37.174 37.174 24.784-24.783 24.784 24.783 37.174-37.174-24.784-24.783 24.784-24.783-37.174-37.174-24.784 24.783-24.784-24.783-37.174 37.174 24.784 24.783-24.784 24.783zM306.655 515.267l-37.174-37.174-24.783 23.014-24.783-24.784-37.174 37.174 24.783 24.784-24.783 24.781 37.174 37.174 24.783-24.781 24.783 24.781 37.174-37.174-24.783-23.011 24.783-24.784zM306.655 678.128l-37.174-37.174-24.783 24.783-24.783-24.783-37.174 37.174 24.783 24.783-24.783 24.783 37.174 37.174 24.783-24.783 24.783 24.783 37.174-37.174-24.783-24.783 24.783-24.783zM375.693 478.093l-37.174 37.174 24.784 24.784-24.784 24.784 37.174 37.174 24.784-24.784 24.784 24.784 37.174-37.174-24.784-24.784 24.784-24.784-37.174-37.174-24.784 23.014-24.784-23.014zM697.872 311.693c10.621 0 17.702 8.851 17.702 17.702 0 10.621-8.851 17.702-17.702 17.702-10.621 0-17.702-8.851-17.702-17.702s7.082-17.702 17.702-17.702z" />
<glyph unicode="&#xe90d;" glyph-name="nohu" d="M624.365 595.427h107.456v-36.976h-107.456v36.976zM96.647 401.667c43.983 58.899 114.239 97.107 193.248 97.107 41.887 0 81.314-10.752 115.666-29.616v126.275h-308.914v-193.766zM454.314 712.362v-68.106h473.686v65.511c0 85.042-69.216 154.233-154.285 154.233h-394.115c42.726-36.683 74.714-91.051 74.714-151.638zM780.659 509.622h-78.147v-36.547h-48.838v36.547h-78.147v85.805h-121.206v-161.594c47.104-44.006 76.602-106.624 76.602-176.003 0-5.123-0.176-10.205-0.493-15.245h397.571v352.842h-147.341v-85.805zM289.895 451.664c-106.913 0-193.895-86.957-193.895-193.834s86.982-193.83 193.895-193.83c106.921 0 193.903 86.954 193.903 193.83s-86.982 193.834-193.903 193.834zM350.662 226.259c0-24.182-15.088-44.886-36.341-53.251v-19.155h-48.845v19.155c-21.252 8.365-36.34 29.069-36.34 53.251h48.839c0-4.624 3.764-8.387 8.391-8.387h7.065c4.628 0 8.392 3.763 8.392 8.387 0 4.627-3.764 8.39-8.392 8.39h-7.065c-31.56 0-57.23 25.667-57.23 57.21 0 24.182 15.088 44.896 36.34 53.251v19.165h48.845v-19.165c21.253-8.355 36.341-29.069 36.341-53.251h-48.84c0 4.627-3.764 8.39-8.392 8.39h-7.065c-4.627 0-8.391-3.763-8.391-8.39 0-4.624 3.764-8.387 8.391-8.387h7.065c31.555 0.006 57.231-25.667 57.231-57.213zM251.035 863.492c85.346 0 154.526-69.166 154.526-154.481v-64.756h-309.060v64.756c0 85.315 69.189 154.481 154.534 154.481z" />
<glyph unicode="&#xe90e;" glyph-name="quayso" d="M186.626 87.395c8.141-32.611 37.326-55.395 70.931-55.395h508.884c33.606 0 62.79 22.784 70.931 55.395l22.72 90.854h-696.184l22.717-90.854zM96 373.251h832v-146.25h-832v146.25zM317 571.501c31.778 0 58.872 20.381 68.933 48.749h82.704l-21.85-198.25h130.426l-21.85 198.25h82.707c10.061-28.368 37.155-48.749 68.931-48.749 40.32 0 73.126 32.803 73.126 73.124s-32.806 73.125-73.126 73.125c-31.776 0-58.87-20.381-68.931-48.75h-88.077l-6.179 56.044c24.429 11.853 41.312 36.906 41.312 65.83 0 40.321-32.806 73.125-73.126 73.125s-73.126-32.804-73.126-73.125c0-28.925 16.883-53.978 41.312-65.83l-6.179-56.044h-88.074c-10.061 28.369-37.155 48.75-68.933 48.75-40.321 0-73.125-32.804-73.125-73.125s32.804-73.124 73.125-73.124z" />
<glyph unicode="&#xe90f;" glyph-name="slots" d="M372.675 306.717h-47.382c-1.558 0-2.819-1.264-2.819-2.826v-89.264c0-1.562 1.261-2.826 2.819-2.826h47.382c1.555 0 2.819 1.264 2.819 2.826v89.264c0 1.562-1.264 2.826-2.819 2.826zM661.616 642.592h-299.235c-11.76 0-21.296-9.549-21.296-21.328v-115.536c0-11.779 9.536-21.328 21.296-21.328h299.235c11.76 0 21.293 9.549 21.293 21.328v115.536c0 11.779-9.533 21.328-21.293 21.328zM535.69 306.717h-47.382c-1.558 0-2.819-1.264-2.819-2.826v-89.264c0-1.562 1.261-2.826 2.819-2.826h47.382c1.555 0 2.819 1.264 2.819 2.826v89.264c0 1.562-1.264 2.826-2.819 2.826zM906.845 412.931c2.813 0 5.597 0.56 8.192 1.651s4.944 2.691 6.915 4.704c1.971 2.013 3.52 4.397 4.557 7.018s1.542 5.421 1.488 8.237v76.554c0 5.619-2.23 11.008-6.195 14.982-3.968 3.971-9.347 6.205-14.957 6.205h-20.307v143.926c0 5.619-2.23 11.008-6.195 14.981-3.968 3.973-9.347 6.205-14.957 6.205s-10.992-2.232-14.957-6.205c-3.968-3.973-6.195-9.362-6.195-14.981v-143.926h-29.050c14.099 423.728-584.937 450.141-606.371 29.379v-273.728l-106.608-106.781c-3.968-3.968-6.2-9.354-6.205-14.973v-112.992c0-5.619 2.228-11.008 6.196-14.982 3.967-3.971 9.347-6.205 14.957-6.205h789.692c5.61 0 10.989 2.234 14.957 6.205 3.965 3.974 6.195 9.363 6.195 14.982v112.992c-0.006 5.619-2.237 11.005-6.205 14.973l-106.608 106.781v124.998h91.661zM298.781 621.123c0.037 16.896 6.745 33.092 18.66 45.052s28.069 18.715 44.94 18.79h299.235c16.87-0.075 33.024-6.829 44.938-18.79 11.917-11.961 18.624-28.156 18.659-45.052v-115.962c-0.035-16.88-6.749-33.062-18.666-45.002-11.92-11.936-28.077-18.659-44.931-18.698h-299.235c-16.858 0.038-33.011 6.762-44.931 18.698-11.919 11.939-18.631 28.122-18.668 45.002v115.962zM417.798 214.627c-0.035-11.978-4.803-23.45-13.258-31.92-8.454-8.467-19.91-13.242-31.866-13.277h-47.523c-11.944 0.035-23.386 4.816-31.818 13.286-8.432 8.474-13.167 19.949-13.167 31.91v89.264c-0.019 5.93 1.132 11.805 3.384 17.286s5.563 10.467 9.742 14.666c4.179 4.198 9.144 7.53 14.611 9.805 5.467 2.272 11.328 3.443 17.248 3.443h47.523c11.968 0 23.443-4.765 31.907-13.238 8.461-8.477 13.216-19.974 13.216-31.962v-89.264zM580.813 214.627c0-5.936-1.165-11.814-3.434-17.296-2.269-5.485-5.594-10.467-9.782-14.662-4.189-4.198-9.165-7.526-14.64-9.798s-11.341-3.44-17.267-3.44h-47.382c-5.926 0-11.795 1.168-17.267 3.44-5.475 2.272-10.451 5.6-14.64 9.798-4.192 4.195-7.517 9.178-9.782 14.662-2.269 5.482-3.437 11.36-3.437 17.296v89.264c0 11.987 4.755 23.485 13.219 31.962 8.461 8.474 19.939 13.238 31.907 13.238h47.382c11.968 0 23.443-4.765 31.907-13.238 8.464-8.477 13.216-19.974 13.216-31.962v-89.264zM743.827 214.627c0-11.962-4.733-23.437-13.165-31.91-8.432-8.47-19.875-13.251-31.818-13.286h-47.523c-11.955 0.035-23.411 4.81-31.866 13.277-8.454 8.47-13.222 19.942-13.261 31.92v89.264c0 11.987 4.755 23.485 13.219 31.962 8.461 8.474 19.939 13.238 31.907 13.238h47.523c5.92 0 11.779-1.171 17.248-3.443 5.466-2.275 10.432-5.606 14.611-9.805s7.488-9.184 9.741-14.666c2.253-5.482 3.402-11.357 3.382-17.286v-89.264zM698.704 306.717h-47.382c-1.558 0-2.819-1.264-2.819-2.826v-89.264c0-1.562 1.261-2.826 2.819-2.826h47.382c1.558 0 2.819 1.264 2.819 2.826v89.264c0 1.562-1.261 2.826-2.819 2.826z" />
<glyph unicode="&#xe910;" glyph-name="sport" d="M870.355 598.586c7.469 39.699 24.333 118.814 32.090 158.471 0.384 1.898 0.381 3.852-0.003 5.75-0.381 1.898-1.139 3.702-2.23 5.31s-2.49 2.988-4.122 4.061c-1.629 1.073-3.459 1.818-5.382 2.193l-128.214 25.385c-2.723 0.494-5.53 0.234-8.109-0.751-2.582-0.985-4.835-2.657-6.512-4.83s-2.714-4.763-2.992-7.481c-0.275-2.719 0.214-5.46 1.418-7.921l17.085-33.895-28.97-24.651c-2.090-1.809-3.629-4.158-4.438-6.783-0.813-2.625-0.867-5.421-0.157-8.074s2.157-5.058 4.176-6.944c2.019-1.886 4.531-3.178 7.251-3.73l113.616-22.442-12.294-60.901c-159.958 64.068-468.64 65.386-636.876 8.765l-10.497 52.117 113.71 22.461c2.702 0.582 5.188 1.889 7.186 3.778s3.428 4.284 4.136 6.924c0.707 2.64 0.662 5.422-0.131 8.038-0.791 2.617-2.298 4.967-4.356 6.791l-28.972 24.651 17.086 33.895c1.19 2.461 1.67 5.199 1.387 7.912s-1.319 5.296-2.994 7.466c-1.674 2.169-3.922 3.84-6.495 4.829s-5.374 1.257-8.092 0.776l-128.366-25.385c-1.915-0.38-3.735-1.13-5.356-2.206s-3.009-2.46-4.086-4.069c-1.077-1.609-1.821-3.413-2.189-5.308s-0.354-3.842 0.043-5.731c7.739-36.773 22.227-110.627 29.772-147.297-50.063-20.957-81.488-48.144-81.475-81.165v-159.645c74.184-45.386 153.635-58 300.854-72.49 31.389 28.589 72.522 44.464 115.219 44.464s83.83-15.872 115.219-44.461c126.134 9.539 219.885 31.987 270.992 56.493 10.63 4.829 20.611 10.941 29.715 18.195v157.443c0 27.44-21.693 50.768-57.645 69.99zM705.738 607.683c43.613-6.355 86.278-17.939 127.053-34.493l-99.827-67.213c-20.976 12.090-43.635 21.075-67.254 26.675 0.131 0 39.763 75.261 40.029 75.030zM536.224 622.358c46.266-0.618 92.454-3.952 138.32-9.981l-38.896-73.152c-32.806 6.118-66.051 9.651-99.424 10.566v72.566zM368.182 614.726c45.926 5.13 92.106 7.728 138.326 7.776v-72.211c-35.437-0.173-70.8-3.13-105.763-8.842l-32.563 73.277zM337.491 610.752l33.434-75.21c-27.658-5.61-54.254-15.466-78.821-29.21l-91.331 70.842c44.092 16.419 89.977 27.69 136.719 33.578zM258.31 463.686c-91.779 24.65-157.955 58.806-87.392 99.322l98.234-76.189c-5.636-6.618-9.38-14.605-10.842-23.133zM737.2 457.13c-112.285-26.746-337.664-26.678-449.988-0.138-0.362 7.325 7.047 14.88 13.437 19.594 55.256 45.142 247.976 55.421 339.915 31.894 29.594-5.002 57.872-15.798 83.171-31.757 6.189-4.87 13.686-12.208 13.466-19.594zM766.355 463.741c-1.795 8.054-5.373 15.616-10.47 22.15l106.144 71.466c55.76-38.125-9.946-70.349-95.674-93.616zM125.714 319.501c-10.172 4.237-20.093 9.037-29.714 14.381v-73.219c0-61.629 109.646-102.861 245.885-121.494v29.347c-0.88 35.888 9.898 71.11 30.755 100.512-92.114 8.214-184.526 24.65-246.926 50.474zM651.658 269.027c28.144-37.456 32.48-84.074 30.454-129.859 136.243 18.634 245.888 59.866 245.888 121.494v75.568c-75.978-41.952-171.187-56.010-276.342-67.203zM512 311.578c-19.114-0.070-38.016-3.978-55.558-11.478-17.539-7.504-33.354-18.448-46.483-32.17s-23.299-29.933-29.891-47.654c-6.595-17.718-9.475-36.576-8.467-55.43v-29.197c93.315-10.198 187.485-10.198 280.8 0v29.197c0.96 18.842-1.955 37.68-8.566 55.379s-16.784 33.891-29.904 47.603c-13.117 13.712-28.912 24.656-46.432 32.176-17.517 7.52-36.397 11.456-55.498 11.574z" />
<glyph unicode="&#xe911;" glyph-name="tablegame" d="M694 628h-364c-99.252 0-180-80.749-180-180s80.748-180 180-180h364c99.251 0 180 80.749 180 180s-80.749 180-180 180zM362 388h-60v120h60v-120zM482 388h-60v120h60v-120zM602 388h-60v120h60v-120zM722 388h-60v120h60v-120zM694 778h-364c-181.962 0-330-148.038-330-330s148.038-330 330-330h364c181.962 0 330 148.038 330 330s-148.038 330-330 330zM694 208h-364c-132.336 0-240 107.664-240 240s107.664 240 240 240h364c132.336 0 240-107.664 240-240s-107.664-240-240-240z" />
<glyph unicode="&#xe912;" glyph-name="ho-tro" d="M312 524.668c-41.357 0-75-33.643-75-74.999v-203.332c0-41.357 33.643-75.004 75-75.004s75 33.647 75 75.004v203.332c0 41.357-33.644 74.999-75 74.999zM187 449.668c0 7.211 0.952 14.178 2.13 21.056-30.13-9.741-52.13-37.726-52.13-71.057v-103.334c0-33.331 22-61.316 52.13-71.057-1.178 6.878-2.13 13.845-2.13 21.060v203.332zM712 524.668c-41.357 0-74.999-33.643-74.999-74.999v-203.332c0-41.357 33.643-75.004 74.999-75.004 7.518 0 14.635 1.446 21.487 3.516-9.306-30.848-37.645-53.513-71.488-53.513h-79.603c-10.355 29.035-37.845 49.997-70.396 49.997-41.357 0-74.999-33.643-74.999-74.999s33.643-74.999 74.999-74.999c32.55 0 60.041 20.962 70.396 50.001h79.603c68.924 0 125.001 56.077 125.001 125.001v253.333c0 41.357-33.643 74.999-74.999 74.999zM834.867 470.724c1.182-6.878 2.133-13.845 2.133-21.056v-203.332c0-7.215-0.951-14.182-2.133-21.060 30.131 9.741 52.13 37.726 52.13 71.057v103.334c0 33.331-21.999 61.316-52.13 71.057zM512 874.667c-206.787 0-375-168.213-375-375.002v-0.636c14.895 11.277 32.128 19.529 51.145 23.223 11.685 168.662 152.278 302.414 323.855 302.414 171.575 0 312.171-133.752 323.853-302.414 19.017-3.695 36.25-11.947 51.145-23.223v0.636c0 206.788-168.213 375.002-374.997 375.002z" />
<glyph unicode="&#xe913;" glyph-name="menu-1" d="M779.465 417.626c64.141-0.196 116.147-53.129 116.535-118.605v-116.058c-0.388-65.532-52.335-118.575-116.535-118.963h-113.685c-64.141 0.405-115.994 53.491-116.173 118.963v116.058c0 65.506 52.002 118.605 116.173 118.605h113.685zM291.215 417.626c5.883 0.619 11.822-0.444 17.121-3.076 5.3-2.628 9.74-6.711 12.804-11.776 3.127-5.111 4.782-10.991 4.782-16.986s-1.655-11.874-4.782-16.986c-3.063-5.065-7.504-9.148-12.804-11.776-5.299-2.633-11.238-3.699-17.121-3.076h-46.68c-29.775 0-54-24.525-54.165-54.929v-114.603c0.75-30.148 24.63-54.357 54.165-54.929h114.465c7.124-0.038 14.183 1.357 20.759 4.096 6.575 2.743 12.534 6.775 17.521 11.866 10.213 10.406 15.919 24.418 15.885 38.997v172.053l-0.48 4.275c-0.272 5.602 0.925 11.179 3.472 16.179 2.547 4.996 6.355 9.246 11.047 12.318 5.261 3.422 11.439 5.154 17.711 4.966 6.272-0.183 12.339-2.278 17.391-5.999 5.107-3.793 8.981-9.003 11.14-14.985 2.163-5.982 2.513-12.467 1.007-18.645v-171.285c0-65.702-52.168-118.967-116.533-118.967h-113.385c-63.81 1.353-115.215 53.837-116.535 118.967v115.695c-0.052 31.39 12.211 61.551 34.155 83.998 10.73 10.974 23.546 19.686 37.693 25.63 14.148 5.939 29.341 8.994 44.687 8.977h46.68zM779.465 353.95h-113.685c-29.713 0-53.82-24.585-53.82-54.929v-116.058c-0.128-14.554 5.504-28.57 15.659-38.997 4.962-5.090 10.897-9.131 17.455-11.874 6.558-2.748 13.598-4.139 20.706-4.1h113.685c7.108-0.038 14.153 1.357 20.706 4.1 6.558 2.743 12.493 6.784 17.455 11.874 10.159 10.428 15.787 24.444 15.659 38.997v116.058c0.017 14.511-5.641 28.454-15.765 38.848-4.954 5.082-10.867 9.118-17.404 11.883-6.537 2.761-13.555 4.186-20.651 4.198zM779.465 832c63.659-1.5 114.854-54 116.177-118.965v-115.695c0.439-31.328-11.409-61.584-33.003-84.286-10.556-11.102-23.223-19.985-37.261-26.129-14.033-6.144-29.154-9.421-44.471-9.647h-47.057c-7.74 0.998-14.852 4.779-20.006 10.641-5.154 5.858-7.996 13.393-7.996 21.197s2.842 15.343 7.996 21.201c5.154 5.861 12.267 9.642 20.006 10.638h45.615c7.172 0.054 14.255 1.546 20.838 4.388s12.531 6.976 17.489 12.157c10.138 10.608 15.697 24.778 15.479 39.45v116.085c-0.375 30.18-24.273 54.465-53.807 54.93h-113.685c-29.713 0-53.82-24.585-53.82-54.93v-173.535l-0.358-3.99c-1.118-7.604-4.937-14.55-10.761-19.568-5.828-5.013-13.265-7.761-20.949-7.731-4.122 0.102-8.175 1.033-11.93 2.739-3.75 1.702-7.121 4.143-9.911 7.177-5.73 6.208-8.768 14.43-8.444 22.873v172.035c-0.158 31.394 12.015 61.594 33.899 84.105 10.692 11.007 23.484 19.761 37.615 25.748 14.127 5.987 29.312 9.085 44.659 9.111h113.685zM358.22 832c64.275-0.195 116.28-53.34 116.536-118.965v-116.055c0.051-31.392-12.211-61.552-34.155-83.999-10.731-10.974-23.546-19.686-37.694-25.63s-29.342-8.994-44.688-8.977h-113.685c-64.14 0.196-116.145 53.129-116.535 118.606v116.055c0.39 65.535 52.335 118.575 116.535 118.965h113.685zM358.22 767.965h-113.685c-7.183 0.138-14.32-1.181-20.979-3.878s-12.703-6.715-17.766-11.812c-10.365-10.426-16.17-24.539-16.14-39.24v-116.055c-0.154-7.37 1.158-14.697 3.863-21.555s6.745-13.109 11.887-18.39c5.082-5.203 11.177-9.31 17.908-12.068s13.955-4.108 21.227-3.967h113.685c7.159 0.054 14.235 1.542 20.81 4.376s12.515 6.956 17.47 12.124c10.137 10.61 15.702 24.777 15.495 39.45v116.085c-0.195 30.255-24.18 54.735-53.82 54.93h0.045z" />
<glyph unicode="&#xe914;" glyph-name="search-1" d="M595.563 768.332c-130.761 0-236.765-106.004-236.765-236.769 0-130.761 106.004-236.766 236.765-236.766 130.765 0 236.77 106.005 236.77 236.766 0 130.765-106.005 236.769-236.77 236.769zM295.129 531.563c0 165.928 134.511 300.437 300.433 300.437 165.926 0 300.437-134.51 300.437-300.437 0-165.922-134.511-300.433-300.437-300.433-92.992 0-176.116 42.249-231.225 108.599l-164.511-164.51c-10.878-10.876-10.878-28.514 0-39.394h0.001c10.876-10.876 28.513-10.876 39.392 0l106.405 106.406c12.432 12.433 32.588 12.433 45.020 0s12.432-32.589 0-45.022l-106.405-106.402c-35.742-35.742-93.692-35.742-129.433 0-35.742 35.742-35.742 93.692 0 129.434l173.652 173.653c-21.3 41.242-33.329 88.051-33.329 137.668zM678.571 614.572c-45.747 45.746-120.265 45.747-166.012 0-12.433-12.432-32.589-12.432-45.022 0s-12.433 32.588 0 45.020c70.613 70.611 185.442 70.612 256.055 0 12.429-12.432 12.429-32.589-0.004-45.021-12.429-12.432-32.589-12.431-45.018 0.001z" />
<glyph unicode="&#xe915;" glyph-name="su-kien" d="M593.792 417.933c0 29.653-11.793 58.129-32.785 79.074-20.945 20.992-49.421 32.785-79.074 32.785-80.785 0-203.954 0-284.738 0-29.694 0-58.127-11.793-79.116-32.785-20.948-20.945-32.745-49.421-32.745-79.074v-284.74c0-29.692 11.796-58.125 32.745-79.113 20.989-20.949 49.422-32.747 79.116-32.747h284.738c29.653 0 58.129 11.797 79.074 32.747 20.992 20.988 32.785 49.421 32.785 79.113v284.74zM532.779 417.933v-284.74c0-13.504-5.367-26.436-14.886-35.955-9.562-9.562-22.494-14.891-35.959-14.891h-284.738c-13.505 0-26.44 5.329-35.958 14.891-9.559 9.519-14.888 22.451-14.888 35.955v284.74c0 13.466 5.329 26.398 14.888 35.959 9.518 9.519 22.453 14.886 35.958 14.886h284.738c13.466 0 26.398-5.367 35.959-14.886 9.519-9.562 14.886-22.494 14.886-35.959zM674.987 299.524c6.020-2.197 11.874-4.275 17.532-6.306 27.904-10.048 58.654-8.585 85.5 4.028 26.846 12.651 47.552 35.426 57.6 63.334 27.375 76.023 69.069 191.911 96.444 267.936 10.048 27.904 8.585 58.656-4.066 85.503-12.612 26.847-35.388 47.551-63.334 57.598-75.985 27.375-191.872 69.069-267.9 96.445-27.904 10.047-58.697 8.583-85.5-4.068-26.846-12.61-47.595-35.389-57.638-63.334-17.169-47.714-40.028-111.21-61.424-170.68-5.695-15.823 2.522-33.314 18.386-39.009 15.823-5.695 33.315 2.522 39.011 18.345l61.461 170.68c4.557 12.691 13.952 23.064 26.155 28.8s26.197 6.427 38.886 1.83l267.9-96.404c12.689-4.556 23.061-13.993 28.8-26.196 5.734-12.203 6.426-26.196 1.83-38.846l-96.405-267.937c-4.557-12.693-13.995-23.023-26.197-28.8-12.203-5.734-26.193-6.387-38.844-1.83l-17.532 6.302c-15.863 5.696-33.357-2.522-39.053-18.385-5.692-15.821 2.564-33.314 18.389-39.006zM339.564 234.889c22.465 0 40.677 18.21 40.677 40.674 0 22.468-18.211 40.678-40.677 40.678s-40.677-18.21-40.677-40.678c0-22.464 18.211-40.674 40.677-40.674zM658.389 618.917c-21.111 7.606-44.42-3.376-52.028-24.528-7.603-21.111 3.379-44.419 24.491-52.026s44.459 3.376 52.066 24.488c7.603 21.111-3.379 44.46-24.529 52.067zM441.254 336.58c22.468 0 40.678 18.21 40.678 40.674 0 22.468-18.21 40.678-40.678 40.678-22.464 0-40.675-18.21-40.675-40.678 0-22.464 18.211-40.674 40.675-40.674zM481.933 173.871c0 22.455-18.223 40.678-40.678 40.678-22.452 0-40.675-18.223-40.675-40.678 0-22.451 18.223-40.674 40.675-40.674 22.455 0 40.678 18.223 40.678 40.674zM744.137 436.723c7.607 21.154-3.379 44.463-24.486 52.070-21.111 7.603-44.463-3.379-52.028-24.491-7.607-21.15 3.375-44.459 24.486-52.066s44.463 3.379 52.028 24.486zM237.871 133.197c22.465 0 40.677 18.21 40.677 40.674s-18.212 40.678-40.677 40.678c-22.465 0-40.677-18.214-40.677-40.678s18.212-40.674 40.677-40.674zM278.548 377.254c0 22.455-18.223 40.678-40.677 40.678s-40.677-18.223-40.677-40.678c0-22.451 18.223-40.674 40.677-40.674s40.677 18.223 40.677 40.674zM621.658 696.976c7.607 21.111-3.375 44.46-24.486 52.066-21.154 7.566-44.463-3.376-52.066-24.528-7.607-21.111 3.375-44.419 24.486-52.026 21.15-7.607 44.459 3.376 52.066 24.487z" />
<glyph unicode="&#xe916;" glyph-name="trang-chu" d="M477.487 121.122c-3.349 3.174-7.373 5.397-11.392 6.985-4.023 1.587-8.38 2.854-13.069 2.854 0 0 0 0-0.337 0h-162.511c-24.461 0-47.916 9.203-65.341 25.707s-27.141 38.4-27.141 61.568v305.613c0 7.616 2.010 15.55 5.361 22.532s8.712 13.329 14.743 18.089l28.817 20.311c5.361 5.712 8.712 12.694 9.382 20.628s-1.676 15.233-6.702 21.263c-4.691 6.030-11.728 10.473-19.435 12.694-7.706 1.904-16.084 1.27-23.791-2.539l-29.152-20.628c-14.743-10.79-27.142-25.071-35.518-40.939s-13.068-33.64-13.403-51.411v-305.933c0-40.939 17.089-79.339 47.581-108.535 30.492-28.877 71.037-45.065 114.597-45.065h162.848c4.356 0 8.713 0.636 12.732 2.223 4.356 1.587 8.38 4.126 11.392 6.98 3.354 3.174 6.033 6.665 7.71 10.79 1.673 4.126 2.679 8.252 2.679 12.698 0 4.442-1.007 8.567-2.679 12.693-1.677 4.126-4.356 7.616-7.71 10.79l0.337 0.631zM883.268 575.577c-8.043 15.868-20.105 30.149-34.513 41.256l-243.605 184.066c-26.47 19.994-59.644 31.101-93.487 31.101-33.839 0-67.012-11.107-93.485-31.101l-77.068-52.998c-7.706-5.078-12.733-13.012-14.408-21.898-1.341-8.568 0.67-17.772 6.031-25.071s13.738-12.060 23.12-13.647c9.382-1.587 18.764 0.635 26.471 6.030l78.407 55.537c14.409 11.107 32.503 17.137 50.931 17.137 18.432 0 36.527-6.030 50.935-17.455l243.601-184.066c6.366-4.76 12.062-11.107 15.748-18.406 3.686-6.982 5.696-14.914 5.696-22.85v-305.929c0-11.426-2.347-22.852-7.036-33.323-4.693-10.79-11.392-20.314-20.105-28.245-8.713-8.252-18.765-14.601-29.824-19.042-11.055-4.442-23.121-6.665-35.183-6.665h-72.375c-2.679 0-5.363 0.951-7.373 2.854-2.010 1.907-3.017 4.446-3.017 6.985v137.732c0 21.897-9.045 42.842-25.463 58.394-16.418 15.548-38.199 24.119-61.321 24.435h-105.886c-11.392 0-22.784-2.223-33.507-6.349-10.723-4.122-20.105-10.155-28.146-17.771s-14.409-16.819-18.764-26.658c-4.356-10.155-6.702-20.625-6.702-31.735v-52.681c0-4.442 0.67-8.567 2.345-12.693s4.356-7.616 7.372-10.79c3.351-3.174 7.037-5.713 11.392-7.3 8.712-3.49 18.429-3.49 26.806 0 4.356 1.587 8.044 4.126 11.393 7.3s5.696 6.98 7.373 10.79c1.673 4.126 2.342 8.252 2.342 12.693v52.681c0 2.223 0.337 4.446 1.344 6.349 1.003 1.903 2.010 3.806 3.682 5.393 1.677 1.587 3.686 2.859 5.696 3.81 2.014 0.951 4.356 1.267 6.703 1.267h105.886c4.689 0 9.045-1.903 12.399-4.757 3.349-3.174 5.026-7.3 5.026-11.742v-138.368c0-20.309 8.375-39.351 23.791-53.632 15.078-14.281 35.183-22.217 56.627-22.217h70.703c21.444 0 42.219 3.81 61.986 11.742 19.772 7.616 37.53 19.042 52.608 33.323s26.807 31.1 35.183 49.826c8.043 18.722 12.399 38.4 12.399 58.709v306.884c0 17.453-4.356 35.225-12.399 51.092h-0.333z" />
<glyph unicode="&#xe917;" glyph-name="tai_xiu" d="M300.346 446.204h47.034v-81.741h-47.034v81.741zM488.482 446.204h47.036v-81.741h-47.036v81.741zM347.38 704h329.24v-125.754h-329.24v125.754zM676.621 446.204h47.031v-81.741h-47.031v81.741zM915.149 704h-191.497v-147.761c0.004-2.89-0.606-5.753-1.783-8.424-1.182-2.671-2.914-5.097-5.099-7.141s-4.779-3.665-7.633-4.77c-2.854-1.105-5.914-1.674-9.003-1.672h-376.271c-3.089-0.002-6.147 0.567-9.002 1.672s-5.447 2.726-7.631 4.77c-2.185 2.044-3.916 4.471-5.098 7.141s-1.788 5.533-1.786 8.424v147.761h-191.496c-3.089 0.002-6.147-0.567-9.002-1.672s-5.447-2.726-7.631-4.77c-2.184-2.044-3.916-4.471-5.097-7.142s-1.788-5.533-1.786-8.424v-176.056c0-105.894 44.952-207.45 124.968-282.325 80.016-74.88 188.54-116.945 301.699-116.945 113.161 0 221.683 42.065 301.7 116.945 80.013 74.876 124.966 176.431 124.966 282.325v176.056c0 2.891-0.606 5.753-1.788 8.424s-2.914 5.097-5.094 7.142c-2.185 2.044-4.779 3.665-7.633 4.77s-5.914 1.673-9.003 1.672zM370.897 320.448h-94.068c-3.089 0-6.148 0.567-9.002 1.673s-5.447 2.726-7.631 4.77c-2.184 2.044-3.916 4.471-5.097 7.142s-1.788 5.534-1.786 8.422v125.756c-0.002 2.889 0.605 5.751 1.786 8.422s2.913 5.099 5.097 7.142c2.184 2.044 4.777 3.665 7.631 4.77s5.913 1.673 9.002 1.673h94.068c3.089 0 6.148-0.567 9.002-1.673s5.447-2.726 7.631-4.77c2.184-2.044 3.916-4.471 5.097-7.142s1.789-5.534 1.786-8.422v-125.756c0.002-2.889-0.605-5.751-1.786-8.422s-2.913-5.099-5.097-7.142c-2.184-2.044-4.777-3.665-7.631-4.77s-5.913-1.673-9.002-1.673zM417.932 219.844c-4.652 0-9.198 1.293-13.065 3.712-3.868 2.415-6.882 5.854-8.662 9.873-1.78 4.023-2.246 8.448-1.338 12.715 0.907 4.271 3.147 8.192 6.436 11.268 3.289 3.081 7.479 5.175 12.041 6.025s9.29 0.414 13.587-1.254c4.297-1.664 7.97-4.484 10.556-8.102 2.581-3.618 3.964-7.876 3.964-12.228-0.004-5.837-2.483-11.43-6.895-15.556-4.407-4.126-10.388-6.447-16.624-6.451zM512 219.844c-4.651 0-9.199 1.293-13.065 3.712-3.87 2.415-6.882 5.854-8.661 9.873-1.779 4.023-2.249 8.448-1.34 12.715 0.909 4.271 3.149 8.192 6.438 11.268 3.285 3.081 7.479 5.175 12.041 6.025s9.289 0.414 13.585-1.254c4.297-1.664 7.97-4.484 10.556-8.102s3.964-7.876 3.964-12.228c-0.004-5.837-2.483-11.43-6.891-15.556-4.412-4.126-10.389-6.447-16.627-6.451zM559.036 320.448h-94.071c-3.089 0-6.144 0.567-8.998 1.673s-5.449 2.726-7.633 4.77c-2.185 2.044-3.917 4.471-5.099 7.142s-1.788 5.534-1.783 8.422v125.756c-0.004 2.889 0.602 5.751 1.783 8.422s2.914 5.099 5.099 7.142c2.185 2.044 4.779 3.665 7.633 4.77s5.909 1.673 8.998 1.673h94.071c3.089 0 6.144-0.567 8.998-1.673s5.449-2.726 7.633-4.77c2.185-2.044 3.917-4.471 5.099-7.142s1.788-5.534 1.783-8.422v-125.756c0.004-2.889-0.602-5.751-1.783-8.422s-2.914-5.099-5.099-7.142c-2.185-2.044-4.779-3.665-7.633-4.77s-5.909-1.673-8.998-1.673zM606.067 219.844c-4.651 0-9.199 1.293-13.065 3.712-3.866 2.415-6.882 5.854-8.661 9.873-1.779 4.023-2.244 8.448-1.34 12.715 0.909 4.271 3.149 8.192 6.438 11.268 3.29 3.081 7.479 5.175 12.041 6.025s9.289 0.414 13.589-1.254c4.297-1.664 7.966-4.484 10.551-8.102s3.964-7.876 3.964-12.228c-0.004-5.837-2.483-11.43-6.891-15.556-4.412-4.126-10.389-6.447-16.627-6.451zM770.688 342.455c0-2.889-0.606-5.751-1.788-8.422s-2.914-5.099-5.099-7.142c-2.18-2.044-4.774-3.665-7.629-4.77s-5.914-1.673-9.003-1.673h-94.067c-3.089 0-6.148 0.567-9.003 1.673s-5.449 2.726-7.633 4.77c-2.18 2.044-3.913 4.471-5.094 7.142s-1.788 5.534-1.788 8.422v125.756c0 2.889 0.606 5.751 1.788 8.422s2.914 5.099 5.094 7.142c2.185 2.044 4.779 3.665 7.633 4.77s5.914 1.673 9.003 1.673h94.067c3.089 0 6.148-0.567 9.003-1.673s5.449-2.726 7.629-4.77c2.185-2.044 3.917-4.471 5.099-7.142s1.788-5.534 1.788-8.422v-125.756z" />
<glyph unicode="&#xe918;" glyph-name="all" d="M512 874.667c-235.838 0-426.667-190.86-426.667-426.667 0-235.84 190.864-426.667 426.667-426.667 235.836 0 426.667 190.861 426.667 426.667 0 235.84-190.865 426.667-426.667 426.667zM436.706 322.509h-50.196v75.294h-50.196v-75.294h-50.196v175.689c0 41.514 33.779 75.293 75.294 75.293 41.519 0 75.294-33.779 75.294-75.293v-175.689zM612.39 322.509h-125.487v250.982h50.193v-200.784h75.294v-50.197zM788.079 322.509h-125.491v250.982h50.197v-200.784h75.294v-50.197zM361.412 523.294c-13.838 0-25.098-11.26-25.098-25.097v-50.197h50.196v50.197c0 13.837-11.259 25.097-25.098 25.097z" />
<glyph unicode="&#xe919;" glyph-name="all-1" d="M384 864h-192c-53.019 0-96-42.981-96-96v-192c0-53.018 42.981-96 96-96h192c53.018 0 96 42.982 96 96v192c0 53.019-42.982 96-96 96zM832 864h-192c-53.018 0-96-42.981-96-96v-192c0-53.018 42.982-96 96-96h192c53.018 0 96 42.982 96 96v192c0 53.019-42.982 96-96 96zM384 416h-192c-53.019 0-96-42.982-96-96v-192c0-53.018 42.981-96 96-96h192c53.018 0 96 42.982 96 96v192c0 53.018-42.982 96-96 96zM736 32c106.039 0 192 85.961 192 192s-85.961 192-192 192c-106.039 0-192-85.961-192-192s85.961-192 192-192z" />
<glyph unicode="&#xe91a;" glyph-name="arrow-down" d="M789.333 364.489l-45.167 41.536-198.886-184.853v568.162h-66.56v-568.162l-198.888 184.853-45.166-41.536 277.333-257.822 277.333 257.822z" />
<glyph unicode="&#xe91b;" glyph-name="arrow-left" d="M428.493 170.667l41.536 45.167-184.853 198.886h568.162v66.56h-568.162l184.853 198.888-41.536 45.166-257.821-277.333 257.821-277.333z" />
<glyph unicode="&#xe91c;" glyph-name="arrow-right" d="M595.511 725.333l-41.536-45.166 184.853-198.888h-568.162v-66.56h568.162l-184.853-198.886 41.536-45.167 257.822 277.333-257.822 277.333z" />
<glyph unicode="&#xe91d;" glyph-name="arrows-clockwise" d="M128 524.8v307.2l112.781-112.781c71.155 71.462 167.578 112.781 271.219 112.781 211.738 0 384-172.262 384-384s-172.262-384-384-384c-160.282 0-305.126 101.030-360.461 251.366-7.334 19.93 2.88 42.010 22.771 49.306 19.853 7.258 41.971-2.842 49.306-22.771 44.275-120.307 160.166-201.101 288.384-201.101 169.382 0 307.2 137.818 307.2 307.2s-137.818 307.2-307.2 307.2c-82.906 0-160.013-33.062-216.998-90.202l140.198-140.198h-307.2z" />
<glyph unicode="&#xe91e;" glyph-name="arrow-up" d="M234.667 531.511l45.166-41.536 198.888 184.854v-568.163h66.56v568.163l198.886-184.854 45.167 41.536-277.333 257.822-277.333-257.822z" />
<glyph unicode="&#xe91f;" glyph-name="arrow-up-right" d="M759.245 254.025c14.037 0.009 26.765 5.722 35.981 14.938 9.212 9.212 14.925 21.939 14.933 35.977l0.508 390.942c0.043 28.085-22.703 50.829-50.786 50.786l-390.943-0.507c-28.076-0.019-50.895-22.837-50.916-50.915-0.044-28.084 22.7-50.828 50.784-50.784l273.963 0.347-415.441-415.44c-18.484-18.483-18.684-48.252-0.448-66.487s48.002-18.035 66.486 0.448l415.442 415.441-0.35-273.963c-0.043-28.087 22.699-50.829 50.786-50.782z" />
<glyph unicode="&#xe920;" glyph-name="arrow-up-right-bold" d="M512 864c-82.278 0-162.706-24.398-231.117-70.109s-121.731-110.681-153.216-186.695c-31.486-76.013-39.724-159.657-23.673-240.352s55.671-154.82 113.85-213.001c58.179-58.18 132.303-97.801 213-113.852 80.695-16.051 164.339-7.812 240.354 23.676 76.011 31.484 140.983 84.804 186.692 153.216 45.713 68.412 70.11 148.838 70.11 231.117-0.115 110.294-43.981 216.038-121.971 294.028s-183.735 121.856-294.029 121.972zM672 384c0-8.486-3.371-16.627-9.374-22.626-5.999-6.003-14.14-9.374-22.626-9.374s-16.627 3.371-22.626 9.374c-6.003 5.999-9.374 14.14-9.374 22.626v114.761l-201.36-201.399c-2.973-2.974-6.503-5.333-10.387-6.942s-8.048-2.436-12.253-2.436c-4.204 0-8.368 0.828-12.253 2.436s-7.414 3.968-10.387 6.942c-2.973 2.974-5.332 6.502-6.941 10.385-1.609 3.887-2.437 8.051-2.437 12.254s0.828 8.367 2.437 12.254c1.609 3.883 3.968 7.411 6.941 10.385l201.4 201.361h-114.761c-8.486 0-16.627 3.372-22.627 9.373s-9.373 14.141-9.373 22.627c0 8.487 3.372 16.626 9.373 22.627s14.141 9.373 22.627 9.373h192c8.486 0 16.627-3.372 22.626-9.373 6.003-6.001 9.374-14.141 9.374-22.627v-192z" />
<glyph unicode="&#xe921;" glyph-name="bank" d="M512 424.666c124.070 0 224.998 100.928 224.998 225.001s-100.928 225-224.998 225c-124.072 0-225-100.928-225-225s100.928-225.001 225-225.001zM487.002 770.062v29.605c0 13.818 11.179 25 24.998 25s24.998-11.182 24.998-25v-29.542c10.415-3.683 20.049-9.411 28.079-17.457 9.715-9.765 9.715-25.61-0.051-35.351-9.762-9.717-25.634-9.765-35.396 0.048-14.31 14.407-42.628 2.785-42.628-17.698 0-13.793 11.23-25 24.998-25 41.357 0 74.999-33.644 74.999-75 0-32.55-20.962-60.040-50.001-70.395v-29.606c0-13.815-11.179-24.998-24.998-24.998s-24.998 11.183-24.998 24.998v29.542c-10.415 3.682-20.049 9.413-28.079 17.457-9.715 9.765-9.715 25.61 0.047 35.352 9.766 9.716 25.638 9.765 35.401-0.049 14.31-14.382 42.628-2.785 42.628 17.699 0 13.793-11.23 25-24.998 25-41.357 0-74.999 33.644-74.999 75 0 32.55 20.962 60.040 50.001 70.395zM913.668 71.334h-26.667v24.998c0 13.82-11.183 25.003-25.003 25.003h-699.999c-13.818 0-25-11.183-25-25.003v-24.998h-26.667c-13.818 0-25-11.183-25-25.003 0-13.815 11.182-24.998 25-24.998h803.335c13.815 0 24.998 11.183 24.998 24.998 0 13.82-11.183 25.003-24.998 25.003zM687.002 374.665h149.999v-203.332h-149.999v203.332zM437.001 374.665h149.999v-203.332h-149.999v203.332zM187 374.665h150v-203.332h-150v203.332zM669.606 424.666h244.062c8.64 0 16.7 4.493 21.286 11.866 4.544 7.373 4.932 16.576 1.075 24.316l-101.666 200.001c-4.25 8.472-12.89 13.818-22.366 13.818h-26.266c0.751-8.247 1.267-16.561 1.267-25 0-92.997-46.528-175.205-117.393-225.001zM110.333 424.666h244.061c-70.868 49.796-117.395 132.004-117.395 225.001 0 8.439 0.518 16.753 1.266 25h-26.266c-9.473 0-18.115-5.347-22.363-13.818l-101.667-200.001c-3.857-7.74-3.467-16.943 1.075-24.316 4.588-7.373 12.645-11.866 21.289-11.866z" />
<glyph unicode="&#xe922;" d="M512 874.667c42.15-0.001 76.331-34.181 76.331-76.332 0-14.096-3.857-27.306-10.522-38.644 9.212-2.316 18.214-5.179 27.021-8.417-13.726-22.995-21.709-49.808-21.713-78.532 0-84.828 68.749-153.615 153.574-153.619 14.95 0 29.38 2.231 43.042 6.217 0.866-8.768 1.387-17.647 1.391-26.641v-155.725c0-27.776 18.569-51.238 43.951-58.637h1.003c42.901 0 77.713-34.769 77.722-77.67 0-5.282-0.525-10.462-1.532-15.45h0.576c-5.696-36.028-36.173-63.817-73.417-62.174-1.101-0.047-2.231-0.098-3.349-0.098h-218.953c0.474-3.853 0.721-7.778 0.721-11.763 0-23.94-8.785-45.811-23.296-62.605-17.574-20.352-43.554-33.242-72.55-33.242-52.941 0-95.845 42.91-95.847 95.846 0 3.981 0.246 7.91 0.717 11.763h-219.001c-1.105 0-2.205 0.051-3.3 0.098-37.239-1.643-67.719 26.15-73.415 62.174h0.574c-1.005 4.988-1.53 10.163-1.53 15.45 0.008 42.893 34.778 77.662 77.671 77.67h1.052c25.388 7.398 43.953 30.861 43.953 58.637v155.725c0.007 125.937 86.49 231.629 203.312 260.993-6.66 11.339-10.522 24.546-10.522 38.644 0 42.152 34.18 76.332 76.335 76.332zM512 828.848c-16.858 0-30.515-13.635-30.515-30.514 0-16.857 13.658-30.513 30.515-30.513 16.853 0.001 30.511 13.658 30.511 30.513 0 16.879-13.658 30.513-30.511 30.514z" />
<glyph unicode="&#xe923;" glyph-name="caret-double-right" d="M523.2 64c-9.472-0.004-18.731 2.807-26.611 8.081-7.876 5.274-14.016 12.774-17.643 21.547s-4.574 18.428-2.722 27.742c1.847 9.314 6.413 17.869 13.111 24.58l244.881 245.466c7.411 7.433 13.291 16.252 17.306 25.958 4.011 9.707 6.076 20.113 6.076 30.618 0 10.509-2.065 20.911-6.076 30.622-4.015 9.707-9.894 18.526-17.306 25.954l-244.881 245.467c-4.446 4.459-7.974 9.751-10.381 15.577s-3.648 12.069-3.648 18.374c0 12.734 5.047 24.947 14.029 33.952s21.163 14.063 33.865 14.063c6.289 0 12.518-1.242 18.33-3.655s11.089-5.95 15.539-10.408l244.847-245.499c32.922-33.005 51.418-77.769 51.418-124.446 0-46.673-18.496-91.439-51.418-124.446l-244.847-245.5c-4.45-4.454-9.728-7.987-15.539-10.398s-12.041-3.652-18.33-3.648zM218.535 64c-9.47 0-18.726 2.82-26.599 8.094-7.872 5.278-14.007 12.774-17.629 21.547s-4.567 18.428-2.717 27.738c1.85 9.31 6.413 17.86 13.111 24.572l289.983 290.714c1.489 1.489 2.667 3.251 3.469 5.197 0.806 1.946 1.22 4.028 1.22 6.131s-0.414 4.19-1.22 6.131c-0.802 1.946-1.98 3.712-3.469 5.197l-289.983 290.715c-8.982 9-14.030 21.209-14.033 33.94s5.039 24.942 14.016 33.946c8.977 9.004 21.155 14.065 33.855 14.068s24.879-5.051 33.862-14.051l290.016-290.748c20.89-21.030 32.614-49.502 32.614-79.181s-11.725-58.15-32.614-79.181l-290.016-290.782c-4.448-4.454-9.728-7.987-15.539-10.398s-12.038-3.652-18.327-3.648z" />
<glyph unicode="&#xe924;" glyph-name="caret-down" d="M213.333 571.11l48.692 47.557 249.975-245.879 249.975 245.879 48.691-47.558-298.667-293.776-298.667 293.776z" />
<glyph unicode="&#xe925;" glyph-name="caret-left" d="M635.11 746.667l47.556-48.692-245.879-249.975 245.879-249.975-47.556-48.691-293.777 298.667 293.777 298.667z" />
<glyph unicode="&#xe926;" glyph-name="caret-right" d="M388.89 149.333l-47.557 48.691 245.879 249.975-245.879 249.975 47.557 48.692 293.776-298.667-293.776-298.667z" />
<glyph unicode="&#xe927;" glyph-name="caret-up" d="M810.667 324.89l-48.691-47.556-249.975 245.879-249.975-245.879-48.692 47.556 298.667 293.777 298.667-293.777z" />
<glyph unicode="&#xe928;" glyph-name="casino" d="M498.667 247.902h26.667l80-226.569h-186.667l80 226.569zM712 554.439c-5.367 0-10.624-0.41-15.898-0.754 18.974 32.398 29.056 69.228 29.227 106.769 0.175 37.541-9.574 74.462-28.254 107.031s-45.632 59.631-78.127 78.451c-32.499 18.82-69.389 28.731-106.948 28.731s-74.449-9.911-106.947-28.731c-32.497-18.82-59.448-45.882-78.128-78.451s-28.428-69.489-28.256-107.031c0.171-37.541 10.254-74.372 29.23-106.769-5.275 0.344-10.532 0.754-15.899 0.754-125.185 0-226.667-95.473-226.667-213.242s101.481-213.244 226.667-213.244c40.339-0.465 80.084 9.737 115.209 29.572 35.123 19.831 64.375 48.597 84.791 83.375 20.416-34.778 49.668-63.543 84.791-83.375 35.123-19.836 74.871-30.037 115.209-29.572 125.184 0 226.667 95.475 226.667 213.244s-101.483 213.242-226.667 213.242zM938.667 341.197c0-117.815-101.466-213.244-226.667-213.244-31.753-0.226-63.215 6.067-92.437 18.492-29.218 12.425-55.573 30.72-77.431 53.747l63.202-178.859h-186.667l63.202 178.859c-21.858-23.027-48.213-41.323-77.433-53.747s-60.682-18.718-92.436-18.492c-124.667 0-225.734 94.494-226.667 211.644 217.333-27.319 472 34.786 739.465 186.586 33.954-17.647 62.477-44.173 82.53-76.753 20.053-32.576 30.882-69.986 31.339-108.233z" />
<glyph unicode="&#xe929;" glyph-name="check" d="M133.362 453.675l51.712 54.797c7.15 7.573 18.724 7.573 25.874 0l178.413-189.056c7.131-7.573 18.725-7.573 25.856 0l397.839 421.569c7.151 7.576 18.726 7.576 25.873 0l51.712-54.796c3.439-3.643 5.359-8.564 5.359-13.699 0-5.154-1.92-10.076-5.359-13.718l-475.424-503.781c-3.419-3.622-8.082-5.658-12.928-5.658s-9.509 2.035-12.928 5.658l-255.998 271.266c-7.15 7.578-7.15 19.84 0 27.418z" />
<glyph unicode="&#xe92a;" glyph-name="check-bold" d="M412.089 129.173c-8.145-8.196-19.259-12.766-30.803-12.766s-22.658 4.57-30.803 12.766l-246.004 246.042c-25.53 25.532-25.53 66.927 0 92.412l30.803 30.81c25.538 25.532 66.888 25.532 92.418 0l153.586-153.591 415.011 415.018c25.54 25.53 66.927 25.53 92.42 0l30.801-30.811c25.532-25.53 25.532-66.92 0-92.41l-507.429-507.468z" />
<glyph unicode="&#xe92b;" glyph-name="check-circle-fill" d="M512 864c-82.278 0-162.706-24.398-231.117-70.109s-121.731-110.681-153.216-186.695c-31.486-76.013-39.724-159.657-23.673-240.352s55.671-154.82 113.85-213.001c58.179-58.18 132.303-97.801 213-113.852 80.695-16.051 164.339-7.812 240.354 23.676 76.011 31.484 140.983 84.804 186.692 153.216 45.713 68.412 70.11 148.838 70.11 231.117-0.115 110.294-43.981 216.038-121.971 294.028s-183.735 121.856-294.029 121.972zM694.639 521.361l-224-224c-2.97-2.978-6.498-5.338-10.385-6.946-3.883-1.613-8.047-2.441-12.254-2.441s-8.371 0.828-12.254 2.441c-3.883 1.609-7.415 3.968-10.386 6.946l-96 96c-6.004 6.003-9.378 14.148-9.378 22.639s3.373 16.636 9.378 22.639c6.004 6.007 14.148 9.378 22.64 9.378s16.636-3.371 22.64-9.378l73.36-73.399 201.361 201.401c2.974 2.973 6.502 5.331 10.385 6.941 3.887 1.609 8.051 2.437 12.254 2.437 4.207 0 8.367-0.828 12.254-2.437 3.883-1.609 7.411-3.968 10.385-6.941s5.333-6.503 6.942-10.388c1.609-3.884 2.436-8.048 2.436-12.253s-0.828-8.368-2.436-12.254c-1.609-3.883-3.968-7.411-6.942-10.385z" />
<glyph unicode="&#xe92c;" glyph-name="Clock" d="M792.538 603.235l15.002 14.978c6.763 6.752 6.763 17.699 0 24.451l-31.919 31.869c-6.763 6.752-17.724 6.752-24.486 0l-15.002-14.978c-51.725 41.443-115.153 68.859-184.333 76.51v82.249h-79.821v-82.036c-179.223-19.977-319.281-171.935-319.281-356.198 0-206.225 175.414-372.655 385.286-357.824 175.765 12.416 318.148 153.455 332.151 328.828 7.629 95.539-22.844 183.992-77.598 252.152zM636.378 340.126h-143.949c-11.294 0-20.45 9.139-20.45 20.416v198.259c0 11.277 9.156 20.418 20.45 20.418h38.921c11.294 0 20.45-9.141 20.45-20.418v-138.978h84.578c11.294 0 20.45-9.143 20.45-20.42v-38.861c0-11.277-9.156-20.416-20.45-20.416zM618.671 874.667h-213.348c-8.951 0-16.208-7.245-16.208-16.183v-59.551c0-8.937 7.256-16.183 16.208-16.183h213.348c8.951 0 16.205 7.246 16.205 16.183v59.551c0 8.938-7.253 16.183-16.205 16.183z" />
<glyph unicode="&#xe92d;" glyph-name="ClockCountdown" d="M309.581 388.267c0-110.933 88.558-204.8 202.419-204.8 41.417 0 80.427 12.177 113.391 34.688 16.922 11.554 19.294 35.866 4.86 50.47l-118.251 119.642v164.587c0 20.376-18.249 36.131-38.033 32.306-92.238-17.83-164.386-99.067-164.386-196.893zM149.333 388.267c0-200.533 160.248-366.933 362.667-366.933 198.199 0 362.667 162.133 362.667 366.933 0 98.133-37.952 183.467-96.994 247.467l23.492 23.765c12.646 12.796 12.646 33.541 0 46.337l-13.244 13.396c-12.646 12.796-33.152 12.796-45.798 0l-27.703-28.032c-46.387 34.133-101.21 55.467-160.247 59.733v42.667h9.783c17.886 0 32.384 14.669 32.384 32.765v15.537c0 18.096-14.498 32.765-32.384 32.765h-95.479c-17.886 0-32.384-14.669-32.384-32.765v-15.537c0-18.096 14.498-32.765 32.384-32.765h9.788v-42.667c-185.55-21.333-328.93-174.933-328.93-362.667zM229.457 388.267c0 157.867 126.511 285.867 282.543 285.867s282.543-128 282.543-285.867c0-157.867-126.511-285.867-282.543-285.867s-282.543 128-282.543 285.867z" />
<glyph unicode="&#xe92e;" glyph-name="coins" d="M387.555 625.778c166.911 0 302.224 55.715 302.224 124.444s-135.313 124.445-302.224 124.445c-166.912 0-302.222-55.716-302.222-124.445s135.31-124.444 302.222-124.444zM348.835 449.139c23.609 50.095 59.093 93.367 102.898 126.327-21.261-1.813-42.667-3.022-64.178-3.022-117.724 0-236.124 27.271-302.222 79.893v-79.893c0-63.325 114.915-115.45 263.502-123.305zM316.445 305.779c0 31.714 4.693 62.293 12.907 91.413-97.209 7.467-188.871 33.455-244.018 77.367v-79.893c0-58.88 99.378-108.053 232.747-120.994-0.995 10.56-1.635 21.261-1.635 32.107zM654.221 590.222c-156.834 0-284.443-127.609-284.443-284.443 0-156.838 127.609-284.446 284.443-284.446 156.838 0 284.446 127.607 284.446 284.446 0 156.834-127.607 284.443-284.446 284.443zM640.713 332.446h27.021c41.566 0 75.379-33.813 75.379-75.379 0-37.367-26.953-68.126-62.225-74.381v-27.985c0-14.72-11.947-26.667-26.667-26.667s-26.667 11.947-26.667 26.667v26.633h-35.554c-14.72 0-26.667 11.947-26.667 26.667s11.947 26.667 26.667 26.667h75.733c12.16 0 22.046 9.886 22.046 22.046 0 12.514-9.886 22.4-22.046 22.4h-27.021c-41.566 0-75.379 33.813-75.379 75.375 0 37.372 26.953 68.126 62.221 74.385v28.015c0 14.72 11.947 26.667 26.667 26.667s26.667-11.947 26.667-26.667v-26.667h35.558c14.72 0 26.667-11.947 26.667-26.667s-11.947-26.667-26.667-26.667h-75.733c-12.16 0-22.046-9.882-22.046-22.042 0-12.518 9.886-22.4 22.046-22.4z" />
<glyph unicode="&#xe92f;" glyph-name="collapse" d="M85.333 192c0 80.452 0 120.678 24.994 145.673s65.22 24.994 145.673 24.994c80.453 0 120.68 0 145.673-24.994s24.994-65.22 24.994-145.673c0-80.452 0-120.678-24.994-145.673s-65.22-24.994-145.673-24.994c-80.453 0-120.68 0-145.673 24.994s-24.994 65.22-24.994 145.673zM147.817 812.183c62.484 62.484 163.050 62.484 364.183 62.484 201.131 0 301.7 0 364.181-62.484 62.485-62.484 62.485-163.050 62.485-364.183 0-201.131 0-301.7-62.485-364.181-62.481-62.485-163.051-62.485-364.181-62.485-16.879 0-33.045 0-48.546 0.038 14.217 21.679 20.437 45.564 23.518 68.467 3.703 27.546 3.699 61.406 3.695 98.342v7.637c0.004 36.932 0.009 70.797-3.695 98.342-4.079 30.336-13.675 62.396-40.043 88.768-26.371 26.368-58.432 35.964-88.767 40.043-27.546 3.703-61.41 3.699-98.343 3.695h-7.637c-36.934 0.004-70.797 0.009-98.343-3.695-22.903-3.081-46.79-9.306-68.468-23.518-0.037 15.497-0.037 31.667-0.037 48.546 0 201.133 0 301.699 62.484 364.183zM672 416c17.673 0 32 14.327 32 32s-14.327 32-32 32h-82.743l158.703 158.706c12.497 12.497 12.497 32.758 0 45.255s-32.755 12.497-45.252 0l-158.707-158.704v82.743c0 17.673-14.327 32-32 32s-32-14.327-32-32v-160c0-17.673 14.327-32 32-32h160z" />
<glyph unicode="&#xe930;" glyph-name="copy" d="M853.333 763.429v-466.285c0-9.007-1.839-17.924-5.414-26.24-3.571-8.32-8.811-15.881-15.415-22.246-6.601-6.37-14.443-11.422-23.070-14.865-8.627-3.447-17.873-5.222-27.213-5.222h-42.667v370.287c-0.073 32.713-13.585 64.066-37.572 87.197s-56.503 36.159-90.428 36.231h-270.221v41.143c0 18.186 7.492 35.628 20.828 48.487s31.423 20.084 50.283 20.084h369.776c18.863 0 36.949-7.224 50.283-20.084 13.338-12.86 20.83-30.301 20.83-48.487zM611.554 667.429h-369.776c-18.86 0-36.947-7.225-50.283-20.084s-20.828-30.301-20.828-48.488v-466.287c0-18.185 7.492-35.627 20.828-48.486s31.423-20.083 50.283-20.083h369.776c18.863 0 36.949 7.223 50.283 20.083 13.338 12.86 20.83 30.302 20.83 48.486v466.287c0 18.187-7.492 35.628-20.83 48.488-13.333 12.859-31.42 20.084-50.283 20.084z" />
<glyph unicode="&#xe931;" glyph-name="crypto" d="M566.579 564.221c-8.742 8.742-20.847 14.121-34.295 14.121h-72.845v-97.28h72.845c42.769 0 65.161 51.507 34.295 83.159zM459.439 433.993v-114.991h86.071c51.554 0 76.838 62.694 40.572 98.176-22.417 22.417-42.231 16.815-126.643 16.815zM938.667 447.889c0 235.803-190.976 426.778-426.556 426.778s-426.778-190.974-426.778-426.778c0-235.58 191.199-426.556 426.778-426.556s426.556 190.976 426.556 426.556zM673.946 296.589c-19.051-19.277-45.726-31.159-75.089-31.159h-57.382v-71.053h-48.862v71.053h-35.191v-71.053h-48.865v71.053h-89.659v48.64h54.468v267.635h-54.468v48.864h89.659v71.055h48.865v-71.055h35.191v71.055h48.862v-71.055h56.486c42.142 0 76.211-34.071 76.211-76.21 0-21.072-8.516-40.123-22.191-54.019-13.675-13.449-32.503-21.969-53.124-22.191 58.726 0 106.249-47.744 106.249-106.47 0-29.363-11.883-56.038-31.159-75.089z" />
<glyph unicode="&#xe932;" glyph-name="currency-circle-dollar" d="M512 874.667c-235.65 0-426.667-191.017-426.667-426.667 0-235.648 191.017-426.667 426.667-426.667 235.635 0 426.667 191.019 426.667 426.667 0 235.65-191.019 426.667-426.667 426.667zM486.268 514.466c2.53-5.7 6.967-10.901 13.265-15.633 6.302-4.732 14.985-9.549 26.018-14.451 26.965-11.733 49.297-23.215 66.999-34.415 17.681-11.217 30.865-24.051 39.548-38.498 8.67-14.451 13.001-32.452 13.001-54.003 0-30.298-9.634-54.733-28.898-73.297-19.268-18.569-45.099-29.517-77.517-32.853v-32.183c0-11.678-9.468-21.15-21.15-21.15s-21.15 9.472-21.15 21.15v31.667c-22.95 2.283-43.452 8.316-61.483 18.133-18.051 9.801-32.185 23.684-42.435 41.651-10.25 17.95-15.2 40.252-14.85 66.867l0.533 1.314h90.117c0-14.182 2.099-25.715 6.302-34.547 4.198-8.849 9.98-15.334 17.331-19.452s15.851-6.165 25.485-6.165c7.881 0 14.447 1.617 19.699 4.868 5.248 3.23 9.199 7.748 11.814 13.53 2.637 5.786 3.934 12.433 3.934 19.968 0 8.934-1.365 16.465-4.066 22.601-2.718 6.131-7.181 11.601-13.397 16.418s-14.767 9.583-25.617 14.315c-27.337 10.85-49.783 21.717-67.401 32.585-17.601 10.85-30.618 23.548-39.018 38.097-8.4 14.537-12.617 32.751-12.617 54.652 0 29.766 10.067 54.25 30.217 73.433 20.134 19.183 47.035 30.35 80.665 33.5v34.417c0 11.607 9.412 21.017 21.018 21.017 11.61 0 21.018-9.41 21.018-21.017v-35.733c31.535-4.733 56.533-17.7 75.017-38.883 18.483-21.2 27.452-48.267 26.935-81.185l0.781-2.099h-91.166c0 18.734-3.55 32.617-10.633 41.651-7.1 9.017-16.333 13.533-27.716 13.533s-20.403-3.683-26.018-11.033c-5.598-7.35-8.401-16.9-8.401-28.633 0-7.718 1.267-14.417 3.819-20.1l0.017-0.034z" />
<glyph unicode="&#xe933;" glyph-name="default" d="M512 96c-194.404 0-352 157.598-352 352 0 194.404 157.596 352 352 352 194.402 0 352-157.596 352-352 0-194.402-157.598-352-352-352zM512 32c229.751 0 416 186.249 416 416s-186.249 416-416 416c-229.751 0-416-186.249-416-416s186.249-416 416-416z" />
<glyph unicode="&#xe934;" glyph-name="digital-wallet" d="M694.857 362.667c0-75.61 61.534-137.143 137.143-137.143h106.667v-121.903c0-33.677-27.277-60.954-60.954-60.954h-304.759v219.763c26.88 11.763 45.713 38.524 45.713 69.76 0 42.086-34.103 76.19-76.19 76.19s-76.19-34.103-76.19-76.19c0-31.236 18.833-57.997 45.713-69.76v-219.763h-91.429v152.38c0 10.517-5.425 20.267-14.324 25.843l-62.964 39.347c7.040 48.397-30.598 87.194-75.093 87.194-42.087 0-76.19-34.103-76.19-76.194 0-61.743 69.303-97.067 119.223-62.839l48.396-30.263v-135.467h-213.333c-33.676 0-60.952 27.277-60.952 60.954v643.046c0 58.91 47.756 106.667 106.667 106.667h586.667c21.030 0 38.097-17.067 38.097-38.095s-17.067-38.095-38.097-38.095h-579.048c-20.968 0-38.095-17.128-38.095-38.095s17.128-38.095 38.095-38.095h678.094c33.677 0 60.954-27.276 60.954-60.952v-140.19h-106.667c-75.61 0-137.143-61.534-137.143-137.143zM832 438.857h106.667v-152.38h-106.667c-41.997 0-76.19 34.163-76.19 76.19s34.193 76.19 76.19 76.19z" />
<glyph unicode="&#xe935;" glyph-name="event" d="M204.151 478.763h41.827v-168.93c-24.327-8.256-43.35-28.151-50.477-53.056h151.148c-7.127 24.905-26.15 44.8-50.477 53.056v108.826c53.839-54.234 137.487-87.889 209.137-87.889 71.667 0 155.311 33.668 209.139 87.889v-108.826c-24.329-8.256-43.349-28.151-50.479-53.056h151.147c-7.125 24.905-26.15 44.8-50.475 53.056v168.93h41.826c13.854 0 25.097 11.302 25.097 25.225 0 13.926-11.243 25.229-25.097 25.229h-10.991c48.725 49.557 13.931 134.536-55.932 134.536-69.867 0-104.657-84.981-55.932-134.536h-10.995c-13.85 0-25.097-11.302-25.097-25.229 0-13.922 11.247-25.225 25.097-25.225h26.722c-14.942-21.999-37.295-42.398-65.451-59.349-80.721-48.597-169.916-52.527-257.158 0-28.158 16.951-50.511 37.35-65.452 59.349h26.72c13.853 0 25.097 11.302 25.097 25.225 0 13.926-11.243 25.229-25.097 25.229h-10.992c48.726 49.557 13.93 134.536-55.932 134.536-69.868 0-104.655-84.981-55.932-134.536h-10.992c-13.853 0-25.097-11.302-25.097-25.229 0-13.922 11.243-25.225 25.097-25.225zM932.203 63.428c-130.931 146.223-108.058 121.182-129.079 142.878-0.137 0.017-598.972 0.017-598.972 0.017-16.451-23.010 3.246 2.415-113.286-144.004-13.124-16.491-1.42-40.986 19.592-40.986h803.091c21.679 0 33.148 25.903 18.654 42.095zM426.106 697.454l-11.612-68.11c-3.527-20.578 18.005-36.312 36.407-26.605l60.851 32.171c66.995-35.41 64.277-35.064 72.529-35.064 15.484 0 27.396 14.019 24.742 29.498l-11.627 68.11 49.242 48.232c14.865 14.579 6.66 39.998-13.905 43.035l-68.045 9.939-30.434 61.955c-9.139 18.697-35.776 18.775-45.005 0l-30.417-61.955-68.047-9.939c-20.553-3.036-28.783-28.447-13.903-43.035l49.223-48.232z" />
<glyph unicode="&#xe936;" glyph-name="eye" d="M321.675 448.009c0 100.873 85.325 182.955 190.338 182.955 104.905 0 190.229-82.080 190.229-182.955 0-100.894-85.325-182.938-190.229-182.938-105.015 0-190.338 82.044-190.338 182.938zM90.256 465.463c-6.563-11.413-6.563-23.492 0-34.918 85.213-147.14 246.808-259.878 421.757-259.878 174.835 0 336.435 112.738 421.645 259.878 6.677 11.426 6.677 23.505 0 34.918-85.21 147.142-246.805 259.87-421.645 259.87-174.949 0-336.544-112.728-421.757-259.87zM512.013 571.005c-70.613 0-127.987-55.17-127.987-122.997 0-67.823 57.373-122.991 127.987-122.991 70.502 0 127.876 55.168 127.876 122.991 0 67.827-57.374 122.997-127.876 122.997z" />
<glyph unicode="&#xe937;" glyph-name="eye-slash" d="M505.506 573.215l122.15-113.179 0.585 5.926c0 59.465-52.16 107.791-116.339 107.791l-6.396-0.539zM511.902 645.613c107.029 0 193.894-80.483 193.894-179.65 0-23.177-5.039-45.269-13.764-65.57l113.429-105.097c58.556 45.274 104.704 103.838 133.205 170.667-67.281 157.732-232.674 269.474-426.761 269.474-54.293 0-106.255-8.982-154.535-25.15l83.764-77.428c21.905 7.904 45.756 12.754 70.767 12.754zM124.112 743.523l106.061-98.269c-63.985-46.349-114.592-107.97-144.84-179.291 67.088-157.73 232.674-269.47 426.569-269.47 60.109 0 117.5 10.778 170.048 30.357l129.523-120.183 49.442 45.632-687.36 637.035-49.443-45.811zM338.561 545.010l59.913-55.512c-1.745-7.727-2.909-15.45-2.909-23.535 0-59.465 52.157-107.789 116.336-107.789 8.725 0 17.062 1.079 25.207 2.697l59.913-55.514c-25.788-11.857-54.481-19.042-85.12-19.042-107.029 0-193.895 80.482-193.895 179.648 0 28.386 7.757 54.976 20.554 79.047z" />
<glyph unicode="&#xe938;" glyph-name="facebook" d="M512 874.667c79.467-0.907 151.258-20.438 215.373-58.592 63.351-37.393 116.049-90.413 153.054-153.991 37.922-64.501 57.335-136.729 58.24-216.678-2.253-109.393-36.757-202.829-103.509-280.299-66.756-77.47-152.252-125.402-240.759-143.774v306.705h83.678l18.923 120.525h-126.703v78.946c-0.704 16.364 4.471 32.44 14.588 45.322 10.133 12.917 27.977 19.706 53.53 20.367h76.514v105.58c-1.097 0.353-11.516 1.75-31.253 4.19-22.383 2.619-44.89 4.018-67.426 4.19-51.004-0.235-91.341-14.622-121.011-43.162-29.67-28.531-44.826-69.809-45.47-123.835v-91.598h-96.421v-120.525h96.421v-306.705c-108.672 18.372-194.169 66.304-260.924 143.774s-101.257 170.906-103.509 280.299c0.901 79.953 20.314 152.18 58.238 216.678 37.007 63.578 89.705 116.598 153.055 153.991 64.113 38.147 135.902 57.678 215.373 58.592z" />
<glyph unicode="&#xe939;" glyph-name="filter" d="M416 421.342v-374.993c0-20.109 21.53-31.765 37.312-20.8l144 99.998c6.682 4.638 10.688 12.45 10.688 20.8v274.995h-192zM872 874.667h-720c-13.266 0-24-11.182-24-25v-74.998h768v74.998c0 13.818-10.735 25-24 25zM142.063 724.669l239.999-253.326h259.876l240 253.326h-739.875z" />
<glyph unicode="&#xe93a;" glyph-name="fire" d="M709.628 607.884c0 0-34.419-90.465-99.635-70.9-54.473 16.341-51.349 90.228-25.152 151.185 45.389 105.618-84.233 186.498-84.233 186.498s2.027-107.127-80.365-147.932c-70.598-34.965-89.972-111.226-57.068-168.183 30.508-52.811-1.848-84.832-30.261-96.237-72.28-29.022-114.344 60.762-114.344 60.762-30.41-49.963-47.903-108.638-47.903-171.396 0-181.636 146.588-328.986 327.915-330.313-82.908 1.318-149.981 69.124-150.060 152.324-0.382 32.964 7.523 68.143 23.491 104.563l8.822 20.122 44.69-13.065c7.171 35.294 25.257 66.722 53.276 92.143 26.423 23.966 52.203 34.133 55.053 35.213l30.43 11.524 3.298-32.375c3.366-33.118 11.921-60.518 26.15-83.772 12.762-20.821 24.602-38.293 38.443-58.108 13.939-19.989 21.538-47.031 21.41-76.169-0.013-40.708-15.881-78.98-44.681-107.78-28.796-28.8-67.098-44.655-107.861-44.655 182.46 0 330.385 147.883 330.385 330.347 0 103.364-47.484 195.643-121.801 256.204zM603.584 173.943c0.090 18.671-4.433 35.938-12.407 47.373-12.416 17.771-25.873 37.423-40.085 60.612-12.463 20.369-21.491 42.829-27.277 68.015-22.575-16.627-50.812-47.369-51.763-97.442l-0.623-32.695-61.618 18.010c-7.745-22.421-11.537-43.759-11.292-63.659l0.002-0.307c0.021-56.546 46.011-102.515 102.519-102.515 27.409 0 53.158 10.658 72.508 30.003 19.371 19.371 30.037 45.111 30.037 72.486v0.119z" />
<glyph unicode="&#xe93b;" glyph-name="game-center" d="M128 627.238v-167.253l154.072-88.145v176.342l-153.484 87.778c-0.389-2.87-0.589-5.783-0.589-8.721zM332.539 342.972l154.228-88.23v176.375l-154.228 88.205v-176.35zM512 650.79l-154.205-88.182 154.205-88.193 154.202 88.193-154.202 88.182zM537.233 254.741l154.227 88.23v176.35l-154.227-88.205v-176.375zM895.407 635.96l-153.485-87.778v-176.342l154.074 88.145v167.253c0.004 2.938-0.196 5.852-0.589 8.721zM862.805 684.215c-35.328 20.227-89.822 51.413-146.125 83.625l-154.206-88.183 154.202-88.181 153.54 87.811c-2.338 1.793-4.813 3.445-7.411 4.928zM666.214 796.71c-45.798 26.197-89.327 51.087-120.994 69.182-10.244 5.85-21.73 8.775-33.22 8.775s-22.98-2.925-33.225-8.778c-30.972-17.732-74.621-42.698-120.956-69.197l154.181-88.17 154.214 88.188zM307.344 767.825c-55.409-31.689-109.573-62.667-146.127-83.595-2.609-1.49-5.087-3.147-7.433-4.947l153.537-87.81 154.2 88.181-154.177 88.17zM128 263.863c0-23.454 12.719-45.286 33.192-56.977 30.964-17.728 74.591-42.684 120.881-69.158v176.375l-154.072 88.145v-138.385zM332.539 108.868c55.454-31.718 109.676-62.729 146.258-83.669 2.586-1.476 5.248-2.761 7.97-3.866v175.671l-154.228 88.23v-176.367zM537.233 21.338c2.731 1.105 5.402 2.394 7.991 3.874 37.449 21.397 91.477 52.297 146.231 83.618v176.405l-154.223-88.23v-175.667zM741.926 137.707c47.023 26.901 90.854 51.989 120.853 69.167 20.501 11.703 33.22 33.536 33.22 56.99v138.385l-154.074-88.141v-176.401z" />
<glyph unicode="&#xe93c;" glyph-name="hand-deposit" d="M119.395 738.799c-8.969-0.013-17.571-3.796-23.946-10.531s-10.009-15.879-10.115-25.453v-509.812c0-30.793 5.693-61.798 23.67-87.424 17.974-25.626 49.109-41.579 84.068-41.579h615.031c69.914 0 130.564 55.94 130.564 129.003v324.531c0 73.061-60.651 129.004-130.564 129.004h-592.205c-36.686 0-62.44 26.95-62.44 56.277-0.106 9.574-3.74 18.718-10.115 25.453s-14.979 10.518-23.948 10.531zM512.068 552.474c24.265 0.001 48.294-5.101 70.716-15.015 22.417-9.916 42.79-24.444 59.951-42.765 17.156-18.317 30.771-40.068 40.055-64 9.289-23.936 14.067-49.591 14.063-75.499 0.004-25.907-4.774-51.558-14.063-75.494-9.284-23.936-22.899-45.683-40.055-64-17.161-18.321-37.534-32.853-59.951-42.765-22.421-9.916-46.451-15.014-70.716-15.014-24.269 0-48.299 5.099-70.72 15.014-22.418 9.911-42.79 24.444-59.949 42.765-17.159 18.317-30.771 40.064-40.057 64s-14.065 49.591-14.065 75.494c-0.001 25.907 4.778 51.563 14.065 75.499 9.286 23.932 22.898 45.683 40.057 64 17.159 18.321 37.531 32.849 59.949 42.765 22.421 9.914 46.451 15.016 70.72 15.015zM215.916 832c-69.866 0-130.583-56.13-130.583-129.185s60.717-129.029 130.583-129.029c9.034 0.009 17.696 3.845 24.084 10.665s9.981 16.067 9.99 25.711c-0.009 9.644-3.601 18.891-9.99 25.711s-15.069 10.655-24.102 10.665c-36.686 0-62.44 26.95-62.44 56.277s25.774 56.255 62.459 56.255h515.796c23.748 0 42.3-19.806 42.3-45.156v-103.751c0.009-9.645 3.601-18.892 9.988-25.711s15.049-10.655 24.085-10.665c9.033 0.009 17.694 3.845 24.081 10.665s9.984 16.067 9.993 25.711v103.751c0 64.707-49.835 118.087-110.447 118.087h-515.796zM534.182 463.885l79.582-85.111c13.146-14.059 11.285-35.247 0-47.164-13.333-14.076-32.896-11.789-44.186 0l-26.159 27.925-0.004-89.237c0-19.324-14.396-33.51-31.394-33.51-18.236 0-31.266 16.367-31.266 33.519v89.276l-24.785-26.505c-14.635-17.579-39.153-12.817-48.869 2.509-7.107 11.213-9.856 29.282 3.179 43.196l80.693 85.995c2.146 2.291 9.903 8.781 21.052 8.781 11.332 0 18.581-5.85 22.157-9.673z" />
<glyph unicode="&#xe93d;" glyph-name="handshake" d="M936.218 528.311l-119.347 247.576c-1.583 3.36-3.93 6.293-6.844 8.561-2.918 2.267-6.323 3.805-9.937 4.486s-7.334 0.489-10.859-0.564c-3.529-1.053-6.758-2.934-9.429-5.491l-57.946-55.27c-20.838-20.725-47.458-34.469-76.258-39.372l-221.737-39.341c-1.92-0.294-3.55-0.726-5.165-1.111l-2.788-0.663c-11.91-3.64-22.572-10.594-30.772-20.070s-13.608-21.095-15.608-33.532l-23.678-139.093c-0.981-5.551-0.851-11.247 0.381-16.751 1.233-5.5 3.543-10.692 6.795-15.275 4.512-6.319 10.72-11.191 17.887-14.042 7.166-2.854 14.99-3.558 22.541-2.039s14.514 5.201 20.061 10.611c5.546 5.406 9.444 12.314 11.23 19.9l21.485 86.635c2.85 11.615 8.977 22.138 17.638 30.284 8.657 8.146 19.469 13.561 31.117 15.585 3.925 0.512 7.881 0.8 11.84 0.864 20.305-0.057 39.983-7.136 55.778-20.064l213.572-174.697 26.283 33.877c20.442 26.633 46.541 48.26 76.365 63.279l46.532 23.151c5.683 2.884 10.010 7.923 12.041 14.020 2.035 6.097 1.613 12.762-1.178 18.547zM92.451 509.99l16.272-12.177c14.338-11.627 26.272-26.001 35.116-42.308 8.845-16.303 14.428-34.214 16.429-52.706l2.21-18.428c0.626-5.905 1.743-11.742 3.337-17.455 11.594 8.448 25.616 12.787 39.892 12.339s28.007-5.653 39.064-14.81c10.937-9.007 18.755-21.312 22.321-35.127 11.59 8.316 25.552 12.548 39.745 12.053 14.193-0.499 27.834-5.696 38.83-14.801 9.219-7.612 16.265-17.579 20.411-28.873 4.146-11.29 5.242-23.501 3.175-35.362 16.43 1.165 32.69-3.994 45.527-14.447 9.215-7.612 16.26-17.579 20.403-28.868 4.147-11.285 5.244-23.492 3.183-35.354 16.435 1.199 32.704-3.964 45.525-14.447 13.687-11.264 22.46-27.529 24.418-45.282s-3.055-35.575-13.948-49.621l-1.19-1.545c6.571-5.589 14.857-8.687 23.437-8.772 8.58-0.081 16.926 2.863 23.599 8.324 4.006 3.563 7.194 7.966 9.34 12.907s3.204 10.3 3.093 15.697c-0.111 5.397-1.382 10.705-3.733 15.552-2.347 4.843-5.713 9.114-9.856 12.506-2.987 2.611-4.855 6.298-5.214 10.278-0.354 3.981 0.828 7.949 3.298 11.063 2.47 3.119 6.042 5.141 9.958 5.645 3.913 0.503 7.868-0.55 11.029-2.944l24.38-19.831c5.414-4.561 11.942-7.552 18.901-8.661 6.955-1.105 14.076-0.282 20.608 2.381 0.29 0.137 0.61 0.26 0.913 0.384 2.743 1.267 5.282 2.948 7.526 4.988 3.989 3.554 7.159 7.945 9.293 12.873s3.174 10.266 3.055 15.646c-0.119 5.376-1.399 10.662-3.75 15.488-2.355 4.826-5.717 9.067-9.86 12.433-1.579 1.259-2.897 2.82-3.878 4.591-0.981 1.775-1.604 3.729-1.839 5.747-0.235 2.022-0.073 4.066 0.478 6.025 0.55 1.954 1.476 3.78 2.722 5.372 1.25 1.596 2.799 2.923 4.553 3.904 1.758 0.986 3.691 1.609 5.683 1.835 1.997 0.226 4.015 0.051 5.943-0.516 1.929-0.563 3.725-1.51 5.291-2.786l24.38-19.695c6.601-5.888 15.044-9.225 23.838-9.417s17.374 2.773 24.218 8.367c3.972 3.58 7.125 7.996 9.246 12.932 2.116 4.937 3.149 10.283 3.025 15.667s-1.404 10.675-3.746 15.505c-2.347 4.834-5.705 9.092-9.835 12.48-3.059 2.594-4.992 6.306-5.38 10.334-0.388 4.023 0.802 8.043 3.311 11.191 2.505 3.145 6.135 5.171 10.099 5.636 3.968 0.465 7.953-0.666 11.106-3.149l24.38-19.861c6.63-5.798 15.057-9.058 23.812-9.216s17.293 2.795 24.124 8.35c3.985 3.567 7.159 7.974 9.293 12.915 2.133 4.937 3.174 10.287 3.059 15.676-0.119 5.393-1.399 10.688-3.75 15.526-2.347 4.838-5.709 9.097-9.852 12.48l-40.38 32.951-225.668 184.606c-12.557 9.971-28.489 14.519-44.335 12.657-5.628-1.164-10.812-3.93-14.942-7.973-4.126-4.045-7.031-9.199-8.371-14.857l-21.453-86.537c-3.17-13.316-10.044-25.434-19.806-34.91s-22.007-15.915-35.276-18.551-27.006-1.361-39.581 3.674c-12.575 5.035-23.459 13.623-31.36 24.738-5.629 7.902-9.633 16.87-11.777 26.368s-2.382 19.337-0.702 28.932l23.677 139.061c4.064 24.391 17.084 46.324 36.446 61.396-4.998 0.556-10.041 1.004-15.237 1.405-26.544 0.702-52.621 7.238-76.426 19.154l-67.818 39.635c-3.719 2.191-7.844 3.581-12.117 4.082s-8.603 0.105-12.718-1.166c-4.224-1.278-8.14-3.428-11.501-6.316s-6.097-6.449-8.032-10.461l-85.888-176.288c-1.146-3.614-1.161-7.497-0.043-11.119s3.316-6.805 6.29-9.114zM225.603 340.386c-6.262 5.154-14.084 7.97-22.154 7.979-1.339 0-2.678-0.081-4.007-0.247-4.679-0.529-9.207-1.997-13.318-4.322-4.111-2.321-7.721-5.457-10.619-9.216l-5.516-7.083c-4.495-5.769-6.566-13.099-5.768-20.403s4.403-13.995 10.034-18.628l13.819-11.298c2.729-2.257 5.878-3.934 9.26-4.937 3.382-0.998 6.927-1.297 10.426-0.883 3.521 0.401 6.928 1.51 10.021 3.26 3.092 1.754 5.809 4.113 7.989 6.942l5.592 7.177c5.901 7.663 8.603 17.365 7.526 27.021s-5.846 18.5-13.286 24.64zM326.545 302.494c-7.414 5.935-16.846 8.657-26.234 7.573s-17.973-5.888-23.878-13.363l-37.299-47.842c-4.483-5.777-6.549-13.107-5.751-20.412 0.798-7.3 4.396-13.995 10.017-18.637l13.804-11.251c2.741-2.261 5.899-3.942 9.289-4.949s6.944-1.323 10.455-0.922c3.511 0.397 6.908 1.502 9.993 3.247s5.795 4.096 7.974 6.912l37.345 47.846c5.975 7.654 8.727 17.391 7.657 27.089s-5.875 18.577-13.371 24.708zM395.658 223.812c-7.415 5.931-16.846 8.649-26.234 7.565s-17.972-5.884-23.879-13.355l-26.71-34.261c-4.486-5.773-6.554-13.103-5.756-20.403s4.398-13.995 10.022-18.633l13.835-11.298c5.585-4.442 12.675-6.473 19.729-5.649 7.054 0.819 13.504 4.425 17.951 10.035l26.71 34.261c5.962 7.646 8.71 17.365 7.649 27.046-1.061 9.685-5.845 18.556-13.317 24.691zM464.815 145.173c-3.644 2.982-7.834 5.201-12.331 6.528s-9.207 1.732-13.858 1.203c-4.655-0.533-9.161-1.997-13.249-4.309-4.091-2.308-7.688-5.419-10.582-9.148l-5.577-7.147c-4.491-5.769-6.564-13.099-5.772-20.403 0.792-7.3 4.386-13.999 10.007-18.645l13.848-11.298c2.748-2.244 5.909-3.917 9.297-4.915 3.392-0.998 6.946-1.301 10.453-0.896 3.507 0.41 6.899 1.523 9.975 3.273 3.081 1.749 5.786 4.105 7.957 6.925l5.513 7.053c5.943 7.663 8.678 17.382 7.616 27.068s-5.837 18.56-13.299 24.713z" />
<glyph unicode="&#xe93e;" glyph-name="hand-withdraw" d="M119.395 738.799c-8.969-0.013-17.571-3.796-23.946-10.531s-10.009-15.879-10.115-25.453v-509.812c0-30.793 5.693-61.798 23.67-87.424 17.974-25.626 49.109-41.579 84.068-41.579h615.031c69.914 0 130.564 55.94 130.564 129.003v324.531c0 73.061-60.651 129.004-130.564 129.004h-592.205c-36.686 0-62.44 26.95-62.44 56.277-0.106 9.574-3.74 18.718-10.115 25.453s-14.979 10.518-23.948 10.531zM512.068 552.474c24.265 0.001 48.294-5.101 70.716-15.015 22.417-9.916 42.79-24.444 59.951-42.765 17.156-18.317 30.771-40.068 40.055-64 9.289-23.936 14.067-49.591 14.063-75.499 0.004-25.907-4.774-51.558-14.063-75.494-9.284-23.936-22.899-45.683-40.055-64-17.161-18.321-37.534-32.853-59.951-42.765-22.421-9.916-46.451-15.014-70.716-15.014-24.269 0-48.299 5.099-70.72 15.014-22.418 9.911-42.79 24.444-59.949 42.765-17.159 18.317-30.771 40.064-40.057 64s-14.065 49.591-14.065 75.494c-0.001 25.907 4.778 51.563 14.065 75.499 9.286 23.932 22.898 45.683 40.057 64 17.159 18.321 37.531 32.849 59.949 42.765 22.421 9.914 46.451 15.016 70.72 15.015zM215.916 832c-69.866 0-130.583-56.13-130.583-129.185s60.717-129.029 130.583-129.029c9.034 0.009 17.696 3.845 24.084 10.665s9.981 16.067 9.99 25.711c-0.009 9.644-3.601 18.891-9.99 25.711s-15.069 10.655-24.102 10.665c-36.686 0-62.44 26.95-62.44 56.277s25.774 56.255 62.459 56.255h515.796c23.748 0 42.3-19.806 42.3-45.156v-103.751c0.009-9.645 3.601-18.892 9.988-25.711s15.049-10.655 24.085-10.665c9.033 0.009 17.694 3.845 24.081 10.665s9.984 16.067 9.993 25.711v103.751c0 64.707-49.835 118.087-110.447 118.087h-515.796zM489.894 246.46l-79.581 85.111c-13.146 14.063-11.287 35.251-0.001 47.164 13.333 14.080 32.897 11.793 44.186 0l26.159-27.925v89.237c0 19.328 14.4 33.51 31.398 33.51 18.236 0 31.262-16.363 31.262-33.519v-89.276l24.789 26.509c14.635 17.579 39.151 12.817 48.866-2.513 7.108-11.213 9.856-29.282-3.179-43.196l-80.691-85.99c-2.146-2.295-9.907-8.785-21.052-8.785-11.332 0-18.581 5.85-22.157 9.673z" />
<glyph unicode="&#xe93f;" glyph-name="hd-nap" d="M176.762 21.333h335.298c-50.377 37.85-88.654 90.94-107.977 152.38h-166.369c-16.823 0-30.476 13.653-30.476 30.477s13.653 30.477 30.476 30.477h153.873c-0.975 10.027-1.492 20.207-1.492 30.477 0 20.877 2.102 41.263 6.094 60.954h-158.475c-16.823 0-30.476 13.653-30.476 30.473 0 16.823 13.653 30.477 30.476 30.477h177.768c14.965 34.197 36.025 65.131 61.804 91.43h-239.572c-16.823 0-30.476 13.653-30.476 30.477s13.653 30.475 30.476 30.475h304.762c4.783 0 9.297-1.097 13.316-3.078 41.724 21.455 88.994 33.554 139.063 33.554 43.337 0 84.574-9.051 121.907-25.387v238.72c0 50.499-40.93 91.429-91.43 91.429h-365.714v-182.857c0-24.259-9.632-47.513-26.79-64.64-17.128-17.158-40.379-26.788-64.639-26.788h-182.857v-487.617c0-24.26 9.632-47.514 26.79-64.64 17.128-17.161 40.379-26.79 64.639-26.79zM112.123 700.739c-11.064-11.063-18.988-24.655-23.226-39.406h179.293c8.077 0 15.849 3.2 21.548 8.93 5.729 5.699 8.928 13.47 8.928 21.547v179.291c-14.751-4.236-28.344-12.16-39.405-23.223l-147.139-147.139zM938.667 265.143c0 134.554-109.257 243.81-243.81 243.81s-243.81-109.257-243.81-243.81c0-134.554 109.257-243.81 243.81-243.81s243.81 109.257 243.81 243.81zM675.81 284.19v133.333h38.093v-133.333h133.333v-38.093h-133.333v-133.333h-38.093v133.333h-133.333v38.093h133.333z" />
<glyph unicode="&#xe940;" glyph-name="hd-rut" d="M176.762 21.333h335.298c-50.377 37.85-88.654 90.94-107.977 152.38h-166.369c-16.823 0-30.476 13.653-30.476 30.477s13.653 30.477 30.476 30.477h153.873c-0.975 10.027-1.492 20.207-1.492 30.477 0 20.877 2.102 41.263 6.094 60.954h-158.475c-16.823 0-30.476 13.653-30.476 30.473 0 16.823 13.653 30.477 30.476 30.477h177.768c14.965 34.197 36.025 65.131 61.804 91.43h-239.572c-16.823 0-30.476 13.653-30.476 30.477s13.653 30.475 30.476 30.475h304.762c4.783 0 9.297-1.097 13.316-3.078 41.724 21.455 88.994 33.554 139.063 33.554 43.337 0 84.574-9.051 121.907-25.387v238.72c0 50.499-40.93 91.429-91.43 91.429h-365.714v-182.857c0-24.259-9.632-47.513-26.79-64.64-17.128-17.158-40.379-26.788-64.639-26.788h-182.857v-487.617c0-24.26 9.632-47.514 26.79-64.64 17.128-17.161 40.379-26.79 64.639-26.79zM112.123 700.739c-11.064-11.063-18.988-24.655-23.226-39.406h179.293c8.076 0 15.848 3.2 21.548 8.929 5.729 5.699 8.928 13.471 8.928 21.547v179.291c-14.751-4.236-28.344-12.16-39.405-23.223l-147.139-147.139zM694.857 508.954c134.554 0 243.81-109.257 243.81-243.81s-109.257-243.81-243.81-243.81c-134.554 0-243.81 109.257-243.81 243.81s109.257 243.81 243.81 243.81zM847.236 249.903v45.717h-304.759v-45.717h304.759z" />
<glyph unicode="&#xe941;" glyph-name="history" d="M776.533 486.4v200.533c0 102.4-85.333 187.733-187.733 187.733h-273.067c-46.933 0-98.133-21.333-132.267-55.467s-55.467-81.067-55.467-132.267v-426.667c0-51.2 21.333-98.133 55.467-132.267s85.333-55.467 132.267-55.467h226.133c42.667-34.133 93.867-51.2 153.6-51.2 132.267 0 243.2 106.667 243.2 238.933 0 106.667-68.267 196.267-162.133 226.133zM302.933 610.133h298.667c12.8 0 25.6-12.8 25.6-25.6s-12.8-25.6-25.6-25.6h-298.667c-12.8 0-25.6 12.8-25.6 25.6s12.8 25.6 25.6 25.6zM302.933 499.2h230.4c12.8 0 25.6-12.8 25.6-25.6s-12.8-25.6-25.6-25.6h-230.4c-12.8 0-25.6 12.8-25.6 25.6 0 17.067 12.8 25.6 25.6 25.6zM448 341.333h-145.067c-12.8 0-25.6 12.8-25.6 25.6s12.8 25.6 25.6 25.6h145.067c12.8 0 25.6-12.8 25.6-25.6s-12.8-25.6-25.6-25.6zM695.467 72.533c-106.667 0-187.733 85.333-187.733 187.733s85.333 187.733 187.733 187.733 187.733-85.333 187.733-187.733c0-102.4-81.067-187.733-187.733-187.733zM789.333 285.867h-68.267v106.667c0 12.8-12.8 25.6-25.6 25.6s-25.6-12.8-25.6-25.6v-132.267c0-12.8 12.8-25.6 25.6-25.6h93.867c12.8 0 25.6 12.8 25.6 25.6 4.267 17.067-8.533 25.6-25.6 25.6z" />
<glyph unicode="&#xe942;" glyph-name="home" d="M427.674 848.402c50.837 35.020 117.815 35.020 168.653 0l277.333-191.044c40.683-28.025 65.007-74.455 65.007-124.084v-361.591c0-83.034-66.859-150.349-149.333-150.349h-554.667c-82.475 0-149.333 67.315-149.333 150.349v361.591c0 49.629 24.325 96.060 65.007 124.084l277.333 191.044zM405.333 214.639c-11.782 0-21.333-9.617-21.333-21.478s9.551-21.478 21.333-21.478h213.333c11.78 0 21.333 9.617 21.333 21.478s-9.553 21.478-21.333 21.478h-213.333z" />
<glyph unicode="&#xe943;" glyph-name="hourglass" d="M791.275 103.159v85.146c0 100.288-82.283 160.265-161.361 218.782-10.923 8.064-24.823 23.381-24.823 46.758s12.523 46.174 24.823 55.923c76.941 60.972 161.361 118.496 161.361 218.78v64.292h62.059v81.827h-682.667v-81.827h62.060v-64.294c0-100.285 84.415-157.808 161.359-218.778 12.301-9.754 24.825-32.546 24.825-55.923 0-23.381-13.903-38.694-24.825-46.758-79.077-58.522-161.359-118.498-161.359-218.782v-85.146h-62.060v-81.826h682.667v81.826h-62.059zM355.272 652.567c-22.877 24.385-35.659 47.857-35.659 75.982v64.292h384.775v-64.294c0-28.123-12.787-51.598-35.661-75.982l-313.455 0.002zM704.388 125.965l-146.129 53.713c-25.442 9.353-67.063 9.353-92.506 0l-146.141-53.717v62.34c0 56.742 47.886 95.061 126.032 152.875l2.074 1.532c29.662 21.905 48.905 52.416 55.433 86.033 5.845-1.225 11.853-1.225 17.698 0 6.507-33.609 25.766-64.115 55.394-85.999l2.108-1.566c78.148-57.813 126.033-96.119 126.033-152.87l0.004-62.34z" />
<glyph unicode="&#xe944;" glyph-name="info" d="M862.545 762.453c-60.983 69.547-191.906 112.213-350.545 112.213-158.641 0-289.562-42.667-350.545-112.213-101.496-117.76-101.496-512 0-628.907 60.983-69.547 191.904-112.213 350.545-112.213 158.639 0 289.562 42.667 350.545 112.213 101.495 117.76 101.495 511.147 0 628.907zM512 672c10.543 0 20.851-3.128 29.615-8.988 8.768-5.86 15.599-14.19 19.635-23.936 4.032-9.745 5.090-20.469 3.034-30.814s-7.134-19.849-14.592-27.308c-7.454-7.459-16.951-12.538-27.294-14.596-10.338-2.058-21.056-1.002-30.797 3.035s-18.065 10.873-23.923 19.643c-5.858 8.771-8.986 19.082-8.986 29.63 0 14.145 5.619 27.71 15.616 37.712s23.552 15.621 37.692 15.621zM554.645 213.333h-85.291c-11.311 0-22.157 4.497-30.157 12.497-7.996 8-12.489 18.854-12.489 30.17s4.493 22.17 12.489 30.17c8 8 18.846 12.497 30.157 12.497v128c-11.311 0-22.157 4.497-30.157 12.497-7.996 8-12.489 18.854-12.489 30.17s4.493 22.17 12.489 30.17c8 8 18.846 12.497 30.157 12.497h42.645c11.311 0 22.157-4.497 30.157-12.497 7.996-8 12.489-18.854 12.489-30.17v-170.667c11.311 0 22.157-4.497 30.157-12.497 7.996-8 12.489-18.854 12.489-30.17s-4.493-22.17-12.489-30.17c-8-8-18.846-12.497-30.157-12.497z" />
<glyph unicode="&#xe945;" glyph-name="info-1" d="M761.613 874.667h-361.968c-30.225 0-58.663-11.734-80-33.066l-137.239-137.246c-21.337-21.332-33.073-49.42-33.073-79.644v-490.31c0-62.221 50.851-113.067 113.072-113.067h499.207c62.221 0 113.054 50.846 113.054 113.067v627.554c0 62.222-50.833 112.713-113.054 112.713zM482.854 734.734c14.814 15.375 40.478 11.976 50.103 0 14.383-14.343 13.129-37.718 0-50.139-14.285-14.287-35.972-14.164-50.103 0-13.12 12.416-14.383 35.791 0 50.139zM472.371 582.939c0 19.635 15.902 35.555 35.554 35.555s35.554-15.92 35.554-35.555v-97.12c0-19.635-15.902-35.554-35.554-35.554s-35.554 15.919-35.554 35.554v97.12zM657.647 163.669h-299.443c-19.653 0-35.555 15.919-35.555 35.554s15.903 35.554 35.555 35.554h299.443c19.652 0 35.554-15.919 35.554-35.554s-15.902-35.554-35.554-35.554zM657.647 305.822h-299.443c-19.653 0-35.555 15.919-35.555 35.554s15.903 35.558 35.555 35.558h299.443c19.652 0 35.554-15.923 35.554-35.558s-15.902-35.554-35.554-35.554z" />
<glyph unicode="&#xe946;" glyph-name="introduce" d="M938.667 801.28c0-16.506-14.029-29.923-31.292-29.923h-790.75c-17.261 0-31.292 13.417-31.292 29.923v43.464c0 16.506 14.031 29.923 31.292 29.923h790.75c17.263 0 31.292-13.417 31.292-29.923v-43.464zM146.688 751.079v-395.043c0-40.469 34.424-73.387 76.745-73.387h278.007v-172.109c-20.983-4.617-36.71-22.558-36.71-43.964 0-24.96 21.21-45.244 47.313-45.244s47.313 20.284 47.313 45.244c0 21.436-15.727 39.347-36.706 43.964v172.109h278.003c42.321 0 76.745 32.917 76.745 73.387v395.043h-730.71zM515.891 431.292h-157.437c-11.518 0-20.883 8.926-20.883 19.938 0 11.017 9.365 19.972 20.883 19.972h157.437c11.52 0 20.851-8.956 20.851-19.972 0-11.012-9.331-19.938-20.851-19.938zM665.566 562.621h-307.111c-11.518 0-20.883 8.924-20.883 19.938s9.365 19.938 20.883 19.938h307.111c11.52 0 20.881-8.924 20.881-19.938s-9.361-19.938-20.881-19.938z" />
<glyph unicode="&#xe947;" glyph-name="jackpot" d="M832.021 874.667h-640.043c-58.805 0-106.645-47.84-106.645-106.645v-640.047c0-58.799 47.84-106.641 106.645-106.641h640.047c58.799 0 106.641 47.842 106.641 106.645v640.043c0 58.805-47.842 106.645-106.645 106.645zM764.053 619.856c-160.393-114.572-137.481-412.449-137.481-412.449h-274.967c0 160.397 229.135 320.798 229.135 320.798-45.828-22.912-105.207-34.739-137.481-22.916-115.868 42.445-114.572-45.828-114.572-45.828h-68.741v229.137h68.741v-45.83h9.163c54.992 59.579 194.394 42.811 219.973 22.912 41.25-32.080 160.397-22.912 206.225 0l0.004-45.824z" />
<glyph unicode="&#xe948;" glyph-name="bau-cua" d="M868.527 689.676c-2.099 2.167-4.787 3.672-7.735 4.329-2.944 0.656-6.020 0.436-8.841-0.634-2.825-1.070-5.269-2.943-7.040-5.388s-2.782-5.353-2.918-8.368c-0.751-32.571-6.746-91.31-24.55-70.879-5.794 5.642-11.588 39.328-12.045 70.88-0.137 3.014-1.152 5.921-2.923 8.365-1.766 2.443-4.215 4.315-7.036 5.385s-5.897 1.291-8.841 0.635c-2.944-0.656-5.636-2.159-7.735-4.324-35.917-37.257-129.822-179.779-14.485-258.973 1.067-0.764 2.287-1.22 3.354-1.98-4.211-13.274-6.921-26.974-8.081-40.853-27.029 8.329-55.343 11.682-83.567 9.907-12.070 21.687-25.626 42.522-40.563 62.345l15.71 6.404c3.682 1.536 6.609 4.459 8.154 8.137s1.579 7.812 0.098 11.516c-1.485 3.703-4.361 6.677-8.017 8.273-3.657 1.6-7.795 1.698-11.52 0.273l-24.247-9.758c-9.758 11.588-20.13 23.322-31.868 34.906-11.593 11.738-23.334 22.104-34.923 31.859l9.758 24.083c0.772 1.856 1.173 3.846 1.169 5.856 0 2.010-0.401 4-1.173 5.854-0.777 1.855-1.911 3.538-3.341 4.951s-3.123 2.531-4.988 3.286c-1.865 0.755-3.857 1.134-5.867 1.114-2.014-0.020-3.998-0.438-5.845-1.23-1.852-0.791-3.524-1.942-4.924-3.383s-2.505-3.147-3.243-5.016l-6.404-15.7c-19.806 14.964-40.649 28.513-62.366 40.546 1.775 28.213-1.583 56.515-9.911 83.531 13.879 1.159 27.588 3.869 40.866 8.078 77.257-119.442 220.493-27.274 260.911 11.131 2.219 2.077 3.772 4.768 4.459 7.729s0.478 6.060-0.597 8.902c-1.079 2.842-2.982 5.3-5.461 7.060s-5.423 2.745-8.465 2.827c-31.411 0.457-65.114 6.249-70.754 11.889-20.506 18.018 38.089 23.811 70.754 24.694 3.038 0.087 5.982 1.075 8.457 2.836 2.479 1.761 4.373 4.218 5.453 7.058 1.075 2.84 1.289 5.937 0.602 8.896-0.683 2.96-2.231 5.65-4.446 7.73-40.892 40.206-195.874 135.634-266.556-0.155-53.393 11.943-127.442-17.047-128.088-60.361-18.607-36.581-13.268-74.078-5.644-108.526-13.352-4.499-25.431-12.13-35.225-22.255l-52 49.692c-2.742 2.664-6.393 4.189-10.217 4.267l-83.413 1.677c-2.37-0.020-4.706-0.563-6.842-1.591s-4.017-2.514-5.51-4.354l-28.668-37.040c-2.4-3.199-3.444-7.213-2.907-11.176s2.615-7.554 5.781-9.998c3.166-2.444 7.168-3.543 11.139-3.061s7.593 2.508 10.081 5.638l23.94 30.942 69.841-1.371 50.017-47.861c-15.343-22.561-28.564-46.493-39.495-71.488l-65.266 50.909c-1.893 1.481-4.105 2.499-6.461 2.976s-4.791 0.396-7.11-0.233c-2.564-1.622-58.618-14.873-59.014-18.9l-32.329-32.163c-2.777-2.889-4.311-6.754-4.27-10.761s1.651-7.838 4.486-10.671c2.835-2.833 6.668-4.442 10.676-4.484 4.009-0.038 7.873 1.493 10.764 4.271l29.43 29.419 41.172 11.736 66.486-51.979c-6.531-19.691-10.927-40.030-13.114-60.663l-44.832 20.578c-3.132 1.515-6.71 1.843-10.065 0.913l-40.715-10.364c-2.661-0.644-5.090-2.018-7.015-3.964l-21.501-21.491c-2.776-2.889-4.306-6.746-4.26-10.752 0.046-4.002 1.665-7.825 4.507-10.645 2.842-2.825 6.679-4.412 10.685-4.429 4.005-0.021 7.857 1.536 10.723 4.335l18.451 18.441 31.413 8.081 51.542-23.782c-1.893-107.742 115.671-225.25 223.554-223.454l23.787-51.524-8.081-31.398-18.453-18.445c-1.446-1.408-2.598-3.089-3.383-4.949-0.785-1.856-1.19-3.857-1.19-5.875 0-2.014 0.405-4.015 1.19-5.871 0.785-1.86 1.937-3.541 3.383-4.949 2.867-2.82 6.729-4.403 10.752-4.403s7.885 1.583 10.748 4.403c4.442 5.248 24.495 21.85 25.468 28.501l10.368 40.7c0.922 3.354 0.597 6.929-0.913 10.061l-20.587 44.813c19.844 2.163 39.415 6.353 58.406 12.501l43.763-75.298-11.895-42.53-18.756-18.594c-2.091-2.155-3.503-4.877-4.062-7.825-0.563-2.948-0.247-5.995 0.905-8.768 1.148-2.769 3.089-5.146 5.572-6.827 2.487-1.685 5.41-2.603 8.414-2.645 8.964-1.762 24.951 19.84 32.329 25.911 3.857-0.435 16.934 56.235 18.603 59.14 0.555 1.984 0.704 4.058 0.439 6.101-0.26 2.039-0.93 4.011-1.963 5.79l-44.378 76.211c26.172 11.17 51.196 24.849 74.722 40.853l47.731-49.997 1.523-69.811-30.955-24.081c-2.458-1.971-4.25-4.655-5.129-7.676-0.883-3.025-0.806-6.246 0.209-9.229s2.927-5.577 5.47-7.437c2.547-1.856 5.602-2.884 8.751-2.944 3.375-0.013 6.652 1.114 9.301 3.2l37.056 28.809c1.877 1.459 3.392 3.332 4.425 5.474s1.553 4.493 1.523 6.874l-1.83 83.375c-0.051 3.844-1.515 7.535-4.117 10.364l-49.715 51.827c10.129 9.792 17.766 21.862 22.268 35.209 36.147-8.183 73.481-12.625 108.723 5.641 35.379 3.051 62.673 46.643 62.673 101.824-0.034 8.794-0.849 17.566-2.441 26.219 5.193 1.89 10.112 4.454 14.643 7.62 115.861 78.929 20.356 223.307-14.49 258.973zM550.281 248.55c-73.651-30.477-144.336-24.23-202.661 35.213-2.857 2.876-4.46 6.767-4.46 10.82 0 4.058 1.603 7.945 4.46 10.825 1.411 1.412 3.086 2.534 4.931 3.298s3.822 1.161 5.819 1.161c1.997 0 3.975-0.397 5.82-1.161s3.52-1.886 4.931-3.298c48.035-48.017 102.167-56.247 169.721-28.659 3.729 1.442 7.872 1.361 11.537-0.226 3.665-1.583 6.562-4.548 8.064-8.247 1.498-3.699 1.485-7.842-0.043-11.533s-4.442-6.63-8.119-8.192z" />
<glyph unicode="&#xe949;" glyph-name="lock-key" d="M753.702 543.517v105.989c0 124.107-108.309 225.161-241.698 225.161-133.223 0-241.7-101.054-241.7-225.161v-105.989c-55.765-4.342-99.637-48.208-99.637-101.2v-126.357c0-162.432 141.739-294.626 316.105-294.626h50.458c174.366 0 316.105 132.194 316.105 294.626v126.357c0 52.996-43.866 96.859-99.631 101.2zM374.924 649.505c7.513 169.206 266.65 169.168 274.16 0v-105.548h-274.16v105.548zM473.758 270.891c-56.407 34.283-28.885 118.080 38.246 117.521 67.136 0.525 94.699-83.2 38.251-117.521-4.339-2.697-7.070-7.488-7.070-12.429v-52.548c-1.045-38.251-61.269-38.323-62.353 0v52.548c0 4.941-2.735 9.732-7.074 12.429z" />
<glyph unicode="&#xe94a;" glyph-name="logout" d="M433.634 157.867c-1.088 2.846-1.463 5.261-1.097 7.219 0.367 1.941-0.9 3.55-3.806 4.791s-4.358 2.223-4.358 2.927c0 0.708-2.083 1.246-6.26 1.596-4.175 0.358-6.258 0.542-6.258 0.542h-169.792c-23.945 0-44.446 8.346-61.5 25.071-17.050 16.708-25.575 36.796-25.575 60.258v375.472c0 23.467 8.523 43.55 25.575 60.262 17.054 16.713 37.555 25.073 61.5 25.073h174.147c4.718 0 8.427 1.147 11.154 3.463 2.718 2.311 4.527 5.78 5.44 10.401 0.905 4.622 1.455 8.795 1.634 12.529 0.179 3.73 0.094 8.445-0.273 14.134-0.358 5.686-0.542 9.241-0.542 10.67 0 4.622-1.724 8.614-5.167 11.998-3.45 3.37-7.529 5.061-12.244 5.061h-174.15c-43.171 0-80.089-15.023-110.749-45.067-30.653-30.044-45.982-66.218-45.982-108.529v-375.466c0-42.308 15.329-78.49 45.982-108.523 30.661-30.059 67.579-45.082 110.749-45.082h174.155c4.718 0 8.429 1.161 11.155 3.465 2.718 2.313 4.527 5.777 5.44 10.406 0.905 4.617 1.451 8.811 1.634 12.527 0.179 3.738 0.094 8.439-0.273 14.131-0.363 5.692-0.542 9.246-0.542 10.671zM928.324 472l-296.051 290.144c-6.886 6.747-15.053 10.132-24.486 10.132s-17.6-3.385-24.495-10.132c-6.895-6.757-10.342-14.765-10.342-24.004v-153.602h-243.806c-9.439 0-17.6-3.385-24.494-10.132-6.895-6.757-10.339-14.76-10.339-24.005v-204.806c0-9.242 3.444-17.246 10.339-23.996 6.902-6.746 15.060-10.142 24.494-10.142h243.811v-153.596c0-9.242 3.443-17.25 10.338-24 6.895-6.758 15.061-10.142 24.495-10.142s17.6 3.383 24.491 10.142l296.047 290.129c6.895 6.763 10.342 14.754 10.342 24 0 9.242-3.447 17.254-10.342 24.009z" />
<glyph unicode="&#xe94b;" glyph-name="menu" d="M476.446 376.883c0 19.627-15.932 35.558-35.558 35.558h-160.070c-51.84 0-101.583-20.587-138.24-57.246-36.658-36.655-57.245-86.4-57.245-138.24v-0.141c0-51.84 20.587-101.585 57.245-138.24 36.657-36.659 86.4-57.246 138.24-57.246h0.142c51.84 0 101.582 20.587 138.24 57.246 36.659 36.655 57.246 86.4 57.246 138.24 0 80.034 0 160.068 0 160.068zM938.667 679.183c0 51.84-20.587 101.582-57.242 138.24-36.659 36.657-86.4 57.244-138.24 57.244h-0.145c-51.84 0-101.581-20.586-138.24-57.244-36.655-36.658-57.242-86.4-57.242-138.24v-160.070c0-19.627 15.927-35.558 35.554-35.558h160c108.019 0 195.554 87.539 195.554 195.557v0.072zM938.667 216.956c0 51.84-20.587 101.585-57.242 138.24-36.659 36.659-86.4 57.246-138.24 57.246-80.038 0-160.073 0-160.073 0-19.627 0-35.554-15.932-35.554-35.558v-160.068c0-51.84 20.587-101.585 57.242-138.24 36.659-36.659 86.4-57.246 138.24-57.246h0.145c51.84 0 101.581 20.587 138.24 57.246 36.655 36.655 57.242 86.4 57.242 138.24v0.141zM476.446 679.183c0 51.84-20.587 101.582-57.246 138.24s-86.4 57.244-138.24 57.244h-0.142c-51.84 0-101.583-20.586-138.24-57.244s-57.245-86.4-57.245-138.24v-0.072c0-108.018 87.538-195.557 195.555-195.557h159.999c19.627 0 35.558 15.932 35.558 35.558v160.070z" />
<glyph unicode="&#xe94c;" glyph-name="mess" d="M512 874.667c-235.627 0-426.667-176.853-426.667-395.038 0-124.322 62.027-235.2 158.987-307.631v-150.665l145.28 79.735c38.773-10.722 79.84-16.533 122.4-16.533 235.627 0 426.667 176.853 426.667 395.038 0 218.187-191.040 395.093-426.667 395.093zM554.398 342.665l-108.638 115.895-212-115.895 233.227 247.575 111.309-115.893 209.331 115.893-233.229-247.575z" />
</font>
</defs>
</svg>
